<?xml version="1.0" standalone="no"?>
<!DOCTYPE svg PUBLIC "-//W3C//DTD SVG 1.1//EN" "http://www.w3.org/Graphics/SVG/1.1/DTD/svg11.dtd" >
<svg>
<metadata>
Created by FontForge 20090914 at Fri Aug 16 23:14:37 2013
 By www-data
(c) 2001-2012 Typodermic Fonts Inc. See attached license agreement. If agreement is missing visit typodermicfonts.com for more info.
</metadata>
<defs>
<font id="SteelfishRg-Regular" horiz-adv-x="280" >
  <font-face 
    font-family="Steelfish Rg"
    font-weight="400"
    font-stretch="normal"
    units-per-em="1000"
    panose-1="2 11 6 8 2 2 2 4 5 4"
    ascent="851"
    descent="-149"
    x-height="619"
    cap-height="823"
    bbox="-126 -149.005 634 1021"
    underline-thickness="50"
    underline-position="-75"
    unicode-range="U+0017-U+FB02"
  />
<missing-glyph horiz-adv-x="524" 
d="M124 -144c-60 0 -90 26.333 -90 79v869c0 53.333 30 80 90 80h274c61.333 0 92 -26.667 92 -80v-869c0 -52.667 -30.667 -79 -92 -79h-274zM257 234c3.33301 18 6.33203 32.832 8.99902 44.499s6.33398 22.167 11.001 31.5s11 18.333 19 27s19.333 19 34 31
c23.333 19.333 42 42.5 56 69.5s24.667 61.5 32 103.5l18 104c2.66699 15.333 4 30.666 4 45.999c0 42.667 -13.5 76.667 -40.5 102s-67.5 38 -121.5 38c-37.333 0 -66.333 -11 -87 -33s-34.667 -56 -42 -102l-27 -159l115 -21l28 162c2.66699 19.333 11.667 29 27 29
c20 0 30 -9.66699 30 -29l-21 -117c-4 -21.333 -7.5 -38.5 -10.5 -51.5s-7 -24.167 -12 -33.5s-11.667 -18 -20 -26s-19.5 -17.667 -33.5 -29c-11.333 -10 -21 -20.167 -29 -30.5s-15 -22.166 -21 -35.499s-11.167 -28.166 -15.5 -44.499s-8.5 -35.5 -12.5 -57.5l-23 -123
l112 -20zM224.999 41.999l-111 19l-24 -138l110 -18z" />
    <glyph glyph-name=".notdef" horiz-adv-x="524" 
d="M124 -144c-60 0 -90 26.333 -90 79v869c0 53.333 30 80 90 80h274c61.333 0 92 -26.667 92 -80v-869c0 -52.667 -30.667 -79 -92 -79h-274zM257 234c3.33301 18 6.33203 32.832 8.99902 44.499s6.33398 22.167 11.001 31.5s11 18.333 19 27s19.333 19 34 31
c23.333 19.333 42 42.5 56 69.5s24.667 61.5 32 103.5l18 104c2.66699 15.333 4 30.666 4 45.999c0 42.667 -13.5 76.667 -40.5 102s-67.5 38 -121.5 38c-37.333 0 -66.333 -11 -87 -33s-34.667 -56 -42 -102l-27 -159l115 -21l28 162c2.66699 19.333 11.667 29 27 29
c20 0 30 -9.66699 30 -29l-21 -117c-4 -21.333 -7.5 -38.5 -10.5 -51.5s-7 -24.167 -12 -33.5s-11.667 -18 -20 -26s-19.5 -17.667 -33.5 -29c-11.333 -10 -21 -20.167 -29 -30.5s-15 -22.166 -21 -35.499s-11.167 -28.166 -15.5 -44.499s-8.5 -35.5 -12.5 -57.5l-23 -123
l112 -20zM224.999 41.999l-111 19l-24 -138l110 -18z" />
    <glyph glyph-name="uni0017" horiz-adv-x="136" 
 />
    <glyph glyph-name="space" unicode=" " horiz-adv-x="136" 
 />
    <glyph glyph-name="exclam" unicode="!" horiz-adv-x="160" 
d="M41 0v109h78v-109h-78zM55 159l-15 342v322h80v-321l-16 -343h-49z" />
    <glyph glyph-name="quotedbl" unicode="&#x22;" horiz-adv-x="257" 
d="M46 595l-15 139v89h70v-89l-15 -139h-40zM171 595l-15 139v89h70v-89l-15 -139h-40z" />
    <glyph glyph-name="numbersign" unicode="#" horiz-adv-x="395" 
d="M170 0l50 296h-85l-50 -296h-52l49 296h-61v65h72l20 123h-75v65h86l45 274h55l-47 -274h84l46 274h54l-47 -274h60v-65h-70l-21 -123h72v-65h-83l-49 -296h-53zM251 484h-85l-20 -123h84z" />
    <glyph glyph-name="dollar" unicode="$" horiz-adv-x="286" 
d="M127 -52l-0.000976562 61.998c-33.333 3.33301 -57.666 16.5 -72.999 39.5s-23 54.5 -23 94.5v158h58v-124c0 -28 1.83301 -50.667 5.5 -68s14.834 -27.666 33.501 -30.999v298l-38 38c-10.667 10.667 -19.667 20.667 -27 30c-12 15.333 -20.333 31.166 -25 47.499
s-7 39.166 -7 68.499v118c0 42 8.16699 73.833 24.5 95.5s40.166 34.167 71.499 37.5v57h31v-57c32.667 -3.33301 56.5 -15.666 71.5 -36.999s22.5 -53.333 22.5 -96v-133h-57v119c0 21.333 -2.16699 39 -6.5 53s-15.166 22.667 -32.499 26v-291l33 -28
c11.333 -9.33301 21.666 -19.666 30.999 -30.999c12.667 -16 21.667 -34.5 27 -55.5s8 -49.167 8 -84.5v-110c0 -40 -8 -71.667 -24 -95s-40.333 -36.666 -73 -39.999v-61h-31zM193.999 245.998c0 28 -2.66699 50.333 -8 67s-15.333 31.667 -30 45v-279
c25.333 4 38 23.667 38 59v108zM127.999 743.998c-14 -2.66699 -23.999 -9.16797 -29.999 -19.501s-9 -24.166 -9 -41.499v-123c0 -18.667 3.16699 -34.5 9.5 -47.5s16.166 -25.833 29.499 -38.5v270z" />
    <glyph glyph-name="percent" unicode="%" horiz-adv-x="480" 
d="M32 768c0 46.667 22.333 70 67 70c45.333 0 68 -23.333 68 -70v-281c0 -46.667 -22.667 -70 -68 -70c-44.667 0 -67 23.333 -67 70v281zM121 769c0 15.333 -7.33301 23 -22 23c-14 0 -21 -7.66699 -21 -23v-283c0 -15.333 7 -23 21 -23c14.667 0 22 7.66699 22 23v283z
M31 0l362 823h51l-361 -823h-52zM312 336c0 46.667 22.333 70 67 70c45.333 0 68 -23.333 68 -70v-281c0 -46.667 -22.667 -70 -68 -70c-44.667 0 -67 23.333 -67 70v281zM401 337c0 15.333 -7.33301 23 -22 23c-14 0 -21 -7.66699 -21 -23v-283c0 -15.333 7 -23 21 -23
c14.667 0 22 7.66699 22 23v283z" />
    <glyph glyph-name="ampersand" unicode="&#x26;" horiz-adv-x="376" 
d="M359 8c-5.33301 -3.33301 -11.666 -6.16797 -18.999 -8.50098s-17.333 -3.5 -30 -3.5c-12 0 -22.5 2 -31.5 6s-16.5 9.33301 -22.5 16c-11.333 -9.33301 -24.833 -16.166 -40.5 -20.499s-32.834 -6.5 -51.501 -6.5c-28 0 -50.833 3.5 -68.5 10.5s-31.5 17.667 -41.5 32
s-17 32.166 -21 53.499s-6 46.333 -6 75v57c0 22.667 1.33301 43.167 4 61.5s6.83398 35.833 12.501 52.5s13.334 33 23.001 49s21.5 33 35.5 51c-12 32.667 -21.333 59.834 -28 81.501s-11.667 40.167 -15 55.5s-5.33301 28.833 -6 40.5s-1 23.5 -1 35.5v50
c0 48 8.33301 82.333 25 103s44 31 82 31c20 0 36.667 -3.16699 50 -9.5s24 -15.333 32 -27s13.833 -25.667 17.5 -42s5.5 -34.166 5.5 -53.499v-58c0 -22 -2.16699 -42.333 -6.5 -61s-10.333 -36.667 -18 -54s-16.834 -34.5 -27.501 -51.5s-22.667 -34.833 -36 -53.5
l95 -270c7.33301 18 12.5 37.667 15.5 59s4.5 42.666 4.5 63.999v32h58v-35c0 -36.667 -3.5 -72 -10.5 -106s-18.5 -64 -34.5 -90c2.66699 -2 6.16699 -3.83301 10.5 -5.5s9.16602 -2.5 14.499 -2.5c14 0 24 4.33301 30 13v-71zM131 355.998
c-6 -9.33301 -11.001 -18.332 -15.001 -26.999s-7 -18.167 -9 -28.5s-3.5 -21.833 -4.5 -34.5s-1.5 -27.334 -1.5 -44.001v-59c0 -36.667 4.83301 -62.667 14.5 -78s27.834 -23 54.501 -23c24.667 0 43.667 5.66699 57 17zM116.999 641.999
c0 -25.333 3.00098 -50.502 9.00098 -75.502s13.667 -49.833 23 -74.5c15.333 20 28.166 42.333 38.499 67s15.5 54.334 15.5 89.001v42c0 19.333 -3 35.333 -9 48s-16.667 19 -32 19c-16 0 -27.5 -5.16699 -34.5 -15.5s-10.5 -26.166 -10.5 -47.499v-52z" />
    <glyph glyph-name="quotesingle" unicode="'" horiz-adv-x="132" 
d="M46 595l-15 139v89h70v-89l-15 -139h-40z" />
    <glyph glyph-name="parenleft" unicode="(" horiz-adv-x="256" 
d="M226 -80c-51.333 0 -89.5 13.667 -114.5 41s-37.5 71.333 -37.5 132v637c0 60.667 12.5 104.667 37.5 132s63.167 41 114.5 41h8v-56h-8c-33.333 0 -57.833 -9.5 -73.5 -28.5s-23.5 -48.5 -23.5 -88.5v-637c0 -40.667 7.83301 -70.5 23.5 -89.5s40.167 -28.5 73.5 -28.5
h8v-55h-8z" />
    <glyph glyph-name="parenright" unicode=")" horiz-adv-x="256" 
d="M74 -80v55h8c33.333 0 57.833 9.5 73.5 28.5s23.5 48.833 23.5 89.5v637c0 40 -7.83301 69.5 -23.5 88.5s-40.167 28.5 -73.5 28.5h-8v56h8c51.333 0 89.5 -13.667 114.5 -41s37.5 -71.333 37.5 -132v-637c0 -60.667 -12.5 -104.667 -37.5 -132s-63.167 -41 -114.5 -41
h-8z" />
    <glyph glyph-name="asterisk" unicode="*" horiz-adv-x="335" 
d="M237 534l-71 107l-69 -107l-38 28l79 99l-123 34l15 45l119 -45l-7 128h49l-7 -128l120 46l14 -46l-123 -34l80 -99z" />
    <glyph glyph-name="plus" unicode="+" horiz-adv-x="462" 
d="M203 224v167h-166v57h166v165h57v-165h166v-57h-166v-167h-57z" />
    <glyph glyph-name="comma" unicode="," horiz-adv-x="134" 
d="M41 -60l-0.000976562 33h6c11.333 0 17 6 17 18v31h-33v103h72v-129c0 -17.333 -4.16699 -31 -12.5 -41s-22.166 -15 -41.499 -15h-8z" />
    <glyph glyph-name="hyphen" unicode="-" horiz-adv-x="182" 
d="M13 385v59h158v-59h-158z" />
    <glyph glyph-name="period" unicode="." horiz-adv-x="133" 
d="M31 0v125h71v-125h-71z" />
    <glyph glyph-name="slash" unicode="/" horiz-adv-x="241" 
d="M6 0l172 823h56l-172 -823h-56z" />
    <glyph glyph-name="zero" unicode="0" horiz-adv-x="328" 
d="M31 692c0 46 10.667 80.833 32 104.5s55 35.5 101 35.5s79.667 -11.833 101 -35.5s32 -58.5 32 -104.5v-561c0 -46 -10.667 -80.833 -32 -104.5s-55 -35.5 -101 -35.5s-79.667 11.833 -101 35.5s-32 58.5 -32 104.5v561zM222 693c0 42.667 -19.333 64 -58 64
c-38 0 -57 -21.333 -57 -64v-564c0 -42.667 19 -64 57 -64c38.667 0 58 21.333 58 64v564z" />
    <glyph glyph-name="one" unicode="1" horiz-adv-x="176" 
d="M61 0l-0.000976562 688h-44v74h22c10.667 0 18.334 2.83301 23.001 8.5s7 15.167 7 28.5v24h67v-823h-75z" />
    <glyph glyph-name="two" unicode="2" horiz-adv-x="309" 
d="M27 0l0.000976562 150.999c0 23.333 0.666992 44.166 2 62.499s4.5 35.833 9.5 52.5s12.5 33.667 22.5 51s23.333 37 40 59l54 74c14 20 25 37.833 33 53.5s13.333 31 16 46s4 32.167 4 51.5v88c0 44 -18 66 -54 66c-20.667 0 -34.5 -5.66699 -41.5 -17
s-10.5 -28 -10.5 -50v-142h-75v142c0 50.667 10.333 87.334 31 110.001s52.667 34 96 34c44 0 76.667 -11.667 98 -35s32 -59.666 32 -108.999v-92c0 -22 -2 -42.667 -6 -62s-9.66699 -38 -17 -56s-16.833 -35.833 -28.5 -53.5s-24.834 -36.167 -39.501 -55.5
c-20.667 -26 -37 -48.167 -49 -66.5s-21 -35.166 -27 -50.499s-9.83301 -30.833 -11.5 -46.5s-2.5 -33.834 -2.5 -54.501v-76h181v-75h-257z" />
    <glyph glyph-name="three" unicode="3" horiz-adv-x="310" 
d="M209 319c0 22 -3.5 38.334 -10.5 49.001s-21.833 16 -44.5 16h-39v71h43c20.667 0 34.167 5.5 40.5 16.5s9.5 27.167 9.5 48.5v170c0 22.667 -3.66699 39.167 -11 49.5s-21.333 15.5 -42 15.5c-20 0 -33.667 -5.16699 -41 -15.5s-11 -26.833 -11 -49.5v-145h-75v145
c0 50 10.167 86.167 30.5 108.5s52.5 33.5 96.5 33.5s76 -11.167 96 -33.5s30 -58.833 30 -109.5v-177c0 -26.667 -5 -47 -15 -61s-24.667 -24.667 -44 -32c18.667 -4.66699 33.5 -13.834 44.5 -27.501s16.5 -35.5 16.5 -65.5v-195c0 -42 -10.333 -75.833 -31 -101.5
s-53 -38.5 -97 -38.5c-43.333 0 -75.666 12.667 -96.999 38s-32 59 -32 101v162h77v-162c0 -20 4 -35.667 12 -47s21.333 -17 40 -17c19.333 0 33.166 5.66699 41.499 17s12.5 27.333 12.5 48v188z" />
    <glyph glyph-name="four" unicode="4" horiz-adv-x="319" 
d="M199 629l-121 -388h119zM197 0v169h-187v66l185 588h72v-582h40v-72h-40v-169h-70z" />
    <glyph glyph-name="five" unicode="5" horiz-adv-x="316" 
d="M213 396c0 38.667 -18.3311 58.001 -54.998 58.001c-32 0 -52 -16.667 -60 -50l-67 3l10 416h240v-77h-171l-9 -265c7.33301 11.333 17.666 21 30.999 29s31.666 12 54.999 12c32 0 56.5 -9.66699 73.5 -29s25.5 -52 25.5 -98v-266c0 -46.667 -10 -81.334 -30 -104.001
s-52 -34 -96 -34c-85.333 0 -128 46 -128 138v173h74v-173c0 -42 18 -63 54 -63c35.333 0 53 21.333 53 64v266z" />
    <glyph glyph-name="six" unicode="6" horiz-adv-x="319" 
d="M31 692c0 44 10.666 78.333 31.999 103s53.666 37 96.999 37c44 0 75.833 -12.333 95.5 -37s29.5 -59 29.5 -103v-142h-73v142c0 20 -4.16699 35.5 -12.5 46.5s-21.5 16.5 -39.5 16.5c-17.333 0 -30.5 -5.5 -39.5 -16.5s-13.5 -26.5 -13.5 -46.5v-217
c6.66699 12 16.334 22 29.001 30s29.667 12 51 12c35.333 0 61.333 -10.167 78 -30.5s25 -53.833 25 -100.5v-255c0 -44 -10.667 -78.333 -32 -103s-54 -37 -98 -37c-43.333 0 -75.666 12.333 -96.999 37s-32 58.667 -32 102v562zM213.999 369
c0 25.333 -4.16699 44.167 -12.5 56.5s-22.166 18.5 -41.499 18.5c-16 0 -28.5 -4.33301 -37.5 -13s-14.167 -20.667 -15.5 -36v-246c0 -26 3.66699 -46.333 11 -61s21.333 -22 42 -22c19.333 0 33.166 5.66699 41.499 17s12.5 27.333 12.5 48v238z" />
    <glyph glyph-name="seven" unicode="7" horiz-adv-x="288" 
d="M69 0c0 114 5.33105 213.5 15.998 298.5s23 157.667 37 218s28.5 109.166 43.5 146.499s27.167 65 36.5 83h-188v77h260v-71c-22 -49.333 -41.167 -100.666 -57.5 -153.999s-29.666 -110.5 -39.999 -171.5s-18.166 -126.667 -23.499 -197s-8 -146.833 -8 -229.5h-76z" />
    <glyph glyph-name="eight" unicode="8" horiz-adv-x="315" 
d="M285 128c0 -44.667 -10.499 -78.667 -31.499 -102s-53.5 -35 -97.5 -35c-43.333 0 -75.5 11.667 -96.5 35s-31.5 57.333 -31.5 102v197c0 30 5.66699 52.667 17 68s26 26 44 32c-16.667 6.66699 -30 17.167 -40 31.5s-15 35.5 -15 63.5v170c0 46 9.5 81.167 28.5 105.5
s50.167 36.5 93.5 36.5c44 0 75.333 -12.167 94 -36.5s28 -59.5 28 -105.5v-170c0 -28 -4.83301 -49.167 -14.5 -63.5s-22.834 -24.833 -39.501 -31.5c17.333 -6 31.833 -16.667 43.5 -32s17.5 -38 17.5 -68v-197zM210.001 330c0 18.667 -4.16699 32.333 -12.5 41
s-22.166 13 -41.499 13c-35.333 0 -53 -18 -53 -54v-201c0 -21.333 4 -37.166 12 -47.499s21.667 -15.5 41 -15.5s33.166 5.16699 41.499 15.5s12.5 26.166 12.5 47.499v201zM209.001 689.999c0 23.333 -3.5 40 -10.5 50s-21.167 15 -42.5 15c-20.667 0 -34.5 -5 -41.5 -15
s-10.5 -26.667 -10.5 -50v-180c0 -19.333 4 -33.333 12 -42s21.333 -13 40 -13c35.333 0 53 18.333 53 55v180z" />
    <glyph glyph-name="nine" unicode="9" horiz-adv-x="319" 
d="M211 691c0 22.667 -4.33203 39 -12.999 49s-22.334 15 -41.001 15s-32.167 -4.66699 -40.5 -14s-12.5 -26 -12.5 -50v-238c0 -39.333 17.667 -59 53 -59c16.667 0 29.5 4.33301 38.5 13s14.167 20.667 15.5 36v248zM211.001 360
c-6.66699 -12 -16.332 -21.833 -28.999 -29.5s-29.334 -11.5 -50.001 -11.5c-36 0 -62.167 10 -78.5 30s-24.5 53.333 -24.5 100v243c0 45.333 10.667 80 32 104s53.333 36 96 36c44 0 76.667 -12 98 -36s32 -58.333 32 -103v-562c0 -44 -10.667 -78.333 -32 -103
s-54 -37 -98 -37c-40.667 0 -72 12.333 -94 37s-33 59 -33 103v142h74v-142c0 -20.667 4.5 -36.667 13.5 -48s22.167 -17 39.5 -17c18 0 31.5 5.66699 40.5 17s13.5 27.333 13.5 48v229z" />
    <glyph glyph-name="colon" unicode=":" horiz-adv-x="133" 
d="M31 366v124h71v-124h-71zM31 0v125h71v-125h-71z" />
    <glyph glyph-name="semicolon" unicode=";" horiz-adv-x="134" 
d="M31 366v124h71v-124h-71zM41 -60l-0.000976562 33h6c11.333 0 17 6 17 18v31h-33v103h72v-129c0 -17.333 -4.16699 -31 -12.5 -41s-22.166 -15 -41.499 -15h-8z" />
    <glyph glyph-name="less" unicode="&#x3c;" horiz-adv-x="462" 
d="M37 384v70l389 128v-58l-331 -103l331 -109v-57z" />
    <glyph glyph-name="equal" unicode="=" horiz-adv-x="462" 
d="M37 484v58h389v-58h-389zM37 297v58h389v-58h-389z" />
    <glyph glyph-name="greater" unicode="&#x3e;" horiz-adv-x="462" 
d="M37 255v57l331 109l-331 103v58l389 -128v-70z" />
    <glyph glyph-name="question" unicode="?" horiz-adv-x="299" 
d="M105 187l0.00292969 111.001c0 19.333 0.833008 36.5 2.5 51.5s4.5 28.667 8.5 41s9.33301 24.166 16 35.499s15 22.666 25 33.999c9.33301 10.667 17 20.334 23 29.001s10.5 17.834 13.5 27.501s5 21.167 6 34.5s1.5 30.666 1.5 51.999v87c0 43.333 -17 65 -51 65
c-35.333 0 -53 -21.333 -53 -64v-145h-73v144c0 48.667 10 84.5 30 107.5s52 34.5 96 34.5c43.333 0 75.166 -11.5 95.499 -34.5s30.5 -59.167 30.5 -108.5v-86c0 -40.667 -3.83301 -73.334 -11.5 -98.001s-20.167 -47.334 -37.5 -68.001
c-12 -13.333 -21.333 -24.833 -28 -34.5s-11.834 -19.167 -15.501 -28.5s-5.83398 -19.666 -6.50098 -30.999s-1 -25.666 -1 -42.999v-113h-71zM105.003 0.000976562v125h71v-125h-71z" />
    <glyph glyph-name="at" unicode="@" horiz-adv-x="515" 
d="M483 63c2 -6 3.00195 -13.333 3.00195 -22c0 -20 -3.5 -38.667 -10.5 -56s-19.333 -32.5 -37 -45.5s-41.167 -23.333 -70.5 -31s-66 -11.5 -110 -11.5c-35.333 0 -67 4.16699 -95 12.5s-52 22.166 -72 41.499s-35.333 44.833 -46 76.5s-16 71.167 -16 118.5v349
c0 82.667 18.167 141.667 54.5 177s93.833 53 172.5 53c76 0 131.5 -16.833 166.5 -50.5s52.5 -87.167 52.5 -160.5v-305c0 -31.333 -7.66699 -57.166 -23 -77.499s-37 -30.5 -65 -30.5c-18 0 -33.667 4 -47 12s-22.666 18.333 -27.999 31
c-2.66699 -10 -9.33398 -19 -20.001 -27s-25 -12 -43 -12c-24.667 0 -44.5 6.66699 -59.5 20s-22.5 38 -22.5 74v217c0 20 2 36.667 6 50s9.5 23.833 16.5 31.5s15.667 13 26 16s21.5 4.5 33.5 4.5c14.667 0 26.834 -3.5 36.501 -10.5s16.834 -16.167 21.501 -27.5
c0 6 0.166992 11.667 0.5 17s0.833008 10.666 1.5 15.999h37v-313c1.33301 -12.667 4.16602 -24 8.49902 -34s14.166 -15 29.499 -15c11.333 0 20.666 4 27.999 12s11 22.333 11 43v309c0 46.667 -13 83.334 -39 110.001s-68.667 40 -128 40
c-32 0 -58.833 -3.83301 -80.5 -11.5s-39 -19.167 -52 -34.5s-22.167 -34.5 -27.5 -57.5s-8 -49.833 -8 -80.5v-337c0 -35.333 4 -64.666 12 -87.999s19.667 -42.333 35 -57s34 -25 56 -31s47.333 -9 76 -9c31.333 0 57.666 2 78.999 6s38.5 9.66699 51.5 17
s22.333 16.5 28 27.5s8.5 23.5 8.5 37.5c0 7.33301 -0.333008 12.666 -1 15.999h50zM300.002 420c-2 14.667 -5.66504 25.5 -10.998 32.5s-14 10.5 -26 10.5c-14.667 0 -25.834 -3.83301 -33.501 -11.5s-11.5 -20.5 -11.5 -38.5v-201c0 -21.333 3.5 -36.5 10.5 -45.5
s18.5 -13.5 34.5 -13.5c19.333 0 31.666 11 36.999 33v234z" />
    <glyph glyph-name="A" unicode="A" horiz-adv-x="335" 
d="M245 0l-18 138h-123l-18 -138h-74l113 823h89l107 -823h-76zM218 208l-26 210.5c-8.66699 69.667 -17 140.167 -25 211.5l-26.5 -211.5l-27.5 -210.5h105z" />
    <glyph glyph-name="B" unicode="B" horiz-adv-x="325" 
d="M219 683c0 23.333 -3.83203 39.667 -11.499 49s-20.834 14 -39.501 14h-55v-291h56c18 0 30.833 4.33301 38.5 13s11.5 22.667 11.5 42v173zM222.001 322.001c0 23.333 -3.5 40.167 -10.5 50.5s-21.167 15.5 -42.5 15.5h-56v-313h55c36 0 54 21.333 54 64v183z
M37.001 0.00195312v822.998h131c44 0 75.333 -11.167 94 -33.5s28 -58.166 28 -107.499v-165c0 -51.333 -16.667 -81.666 -50 -90.999c16 -3.33301 30 -11.833 42 -25.5s18 -35.5 18 -65.5v-196c0 -48.667 -11 -84 -33 -106s-55 -33 -99 -33h-131z" />
    <glyph glyph-name="C" unicode="C" horiz-adv-x="309" 
d="M213 302h68.998v-170c0 -48 -9.5 -83.5 -28.5 -106.5s-49.5 -34.5 -91.5 -34.5c-87.333 0 -131 46.333 -131 139v560c0 94.667 43.667 142 131 142c80 0 120 -46.667 120 -140v-146h-69v145c0 22 -3.66699 38.167 -11 48.5s-20.666 15.5 -39.999 15.5
c-36 0 -54 -21.333 -54 -64v-560c0 -43.333 18 -65 54 -65c18.667 0 31.834 5.33301 39.501 16s11.5 27 11.5 49v171z" />
    <glyph glyph-name="D" unicode="D" horiz-adv-x="326" 
d="M219 681c0 20.667 -4.5 36.667 -13.5 48s-22.5 17 -40.5 17h-52v-671h52c36 0 54 21.667 54 65v541zM37 0v823h128c43.333 0 75.833 -12.5 97.5 -37.5s32.5 -59.5 32.5 -103.5v-542c0 -93.333 -43.333 -140 -130 -140h-128z" />
    <glyph glyph-name="E" unicode="E" 
d="M37 0v823h218v-77h-142v-289h100v-76h-100v-306h147v-75h-223z" />
    <glyph glyph-name="F" unicode="F" horiz-adv-x="270" 
d="M37 0v823h223v-77h-147v-293h101v-76h-101v-377h-76z" />
    <glyph glyph-name="G" unicode="G" horiz-adv-x="322" 
d="M280 -5l-25 45c-8 -16 -21 -28.167 -39 -36.5s-38.333 -12.5 -61 -12.5c-18 0 -34.5 2.33301 -49.5 7s-28 12.5 -39 23.5s-19.667 25.5 -26 43.5s-9.5 40 -9.5 66v560c0 45.333 10.833 80.166 32.5 104.499s54.167 36.5 97.5 36.5c44 0 75.833 -12.167 95.5 -36.5
s29.5 -59.166 29.5 -104.499v-145h-68v145c0 21.333 -4.33301 37.333 -13 48s-23.334 16 -44.001 16c-19.333 0 -33.166 -5.33301 -41.499 -16s-12.5 -26.667 -12.5 -48v-560c0 -21.333 5 -37.5 15 -48.5s22.667 -16.5 38 -16.5c36 0 55.667 19.667 59 59v187h-63v72h136
v-389h-12z" />
    <glyph glyph-name="H" unicode="H" horiz-adv-x="332" 
d="M219 0v381h-106v-381h-76v823h76v-367h106v367h76v-823h-76z" />
    <glyph glyph-name="I" unicode="I" horiz-adv-x="154" 
d="M39 0v823h76v-823h-76z" />
    <glyph glyph-name="J" unicode="J" horiz-adv-x="217" 
d="M10 77c12 -4.66699 28 -7 48 -7c32.667 0 49 21.333 49 64v689h76v-689c0 -48.667 -10.667 -84.167 -32 -106.5s-52.333 -33.5 -93 -33.5c-20.667 0 -36.667 2.33301 -48 7v76z" />
    <glyph glyph-name="K" unicode="K" horiz-adv-x="349" 
d="M257 0l-144 405v-405h-76v823h76v-355l139 355h82l-156 -375l166 -448h-87z" />
    <glyph glyph-name="L" unicode="L" horiz-adv-x="270" 
d="M37 0v823h76v-748h147v-75h-223z" />
    <glyph glyph-name="M" unicode="M" horiz-adv-x="451" 
d="M345 0v249c0 60 0.166992 119.333 0.5 178s0.833008 118 1.5 178l-89 -605h-67l-88 605c0.666992 -60 1.16699 -119.333 1.5 -178s0.5 -118 0.5 -178v-249h-70v823h102l87 -643l87 643h105v-823h-71z" />
    <glyph glyph-name="N" unicode="N" horiz-adv-x="353" 
d="M242 0l-142 600.999c0.666992 -61.333 1 -122.166 1 -182.499v-182.5v-236h-66v823h91l126 -603c-0.666992 56.667 -1 112.5 -1 167.5v165.5v270h67v-823h-76z" />
    <glyph glyph-name="O" unicode="O" horiz-adv-x="321" 
d="M31 692c0 46 10.667 80.833 32 104.5s53.666 35.5 96.999 35.5c44 0 76.667 -11.833 98 -35.5s32 -58.5 32 -104.5v-561c0 -46 -10.667 -80.833 -32 -104.5s-54 -35.5 -98 -35.5c-43.333 0 -75.666 11.833 -96.999 35.5s-32 58.5 -32 104.5v561zM214 692
c0 42 -18 63 -54 63c-35.333 0 -53 -21 -53 -63v-561c0 -43.333 17.667 -65 53 -65c36 0 54 21.667 54 65v561z" />
    <glyph glyph-name="P" unicode="P" horiz-adv-x="322" 
d="M231 674c0 24.667 -5 42.834 -15 54.501s-27 17.5 -51 17.5h-52v-281h53c22 0 38.333 5.66699 49 17s16 29.666 16 54.999v137zM37 0v823h128c48 0 83.5 -12 106.5 -36s34.5 -61.667 34.5 -113v-135c0 -52 -11.333 -89.667 -34 -113s-58 -35 -106 -35h-53v-391h-76z" />
    <glyph glyph-name="Q" unicode="Q" horiz-adv-x="321" 
d="M290 -72c-5.33301 -6.66699 -13.5 -12.334 -24.5 -17.001s-25.167 -7 -42.5 -7c-16 0 -30 2.83301 -42 8.5s-21.833 13.167 -29.5 22.5s-13.5 20.166 -17.5 32.499s-6 25.5 -6 39.5c-64.667 10.667 -97 56.334 -97 137.001v548c0 46 10.5 80.833 31.5 104.5
s53.5 35.5 97.5 35.5s76.667 -11.833 98 -35.5s32 -58.5 32 -104.5v-548c0 -39.333 -8.66699 -71.5 -26 -96.5s-45.333 -38.833 -84 -41.5c0 -11.333 4 -21.166 12 -29.499s21.667 -12.5 41 -12.5c25.333 0 44.333 8.33301 57 25v-61zM214 692c0 42 -18 63 -54 63
c-35.333 0 -53 -21 -53 -63v-552c0 -42 17.667 -63 53 -63c36 0 54 21 54 63v552z" />
    <glyph glyph-name="R" unicode="R" horiz-adv-x="331" 
d="M230 0c-8.66699 63.333 -17.667 125.831 -27 187.498s-19.666 123.834 -30.999 186.501c-3.33301 -0.666992 -6.33301 -1 -9 -1h-9h-41v-373h-76v823h125c48 0 83.833 -11.167 107.5 -33.5s35.5 -60.5 35.5 -114.5v-164c0 -60 -20.333 -100.333 -61 -121
c13.333 -65.333 25.666 -130.666 36.999 -195.999s22 -130 32 -194h-83zM228 664.998c0 29.333 -4.33203 50.167 -12.999 62.5s-26.334 18.5 -53.001 18.5h-49v-304h50c23.333 0 40 5.5 50 16.5s15 28.167 15 51.5v155z" />
    <glyph glyph-name="S" unicode="S" horiz-adv-x="310" 
d="M207 244c0 12 -0.333008 22.165 -1 30.498s-2 15.5 -4 21.5s-4.66699 11.5 -8 16.5s-7.33301 10.5 -12 16.5c-10 12 -20 23.167 -30 33.5l-31 31l-32.5 33c-11 11.667 -22.5 24.834 -34.5 39.501c-13.333 15.333 -21.166 31.166 -23.499 47.499s-3.5 36.166 -3.5 59.499
v123c0 90.667 42.667 136 128 136c46 0 78.333 -11.167 97 -33.5s28 -56.5 28 -102.5v-150h-71v140c0 20.667 -3.5 37.334 -10.5 50.001s-20.833 19 -41.5 19c-35.333 0 -53 -19.667 -53 -59v-122c0 -17.333 1.16699 -30 3.5 -38s7.16602 -16.667 14.499 -26
c20 -25.333 40.5 -47.666 61.5 -66.999s42.167 -41.666 63.5 -66.999c14.667 -17.333 24.334 -35.333 29.001 -54s7 -44.334 7 -77.001v-118c0 -44 -9.83301 -77.667 -29.5 -101s-52.5 -35 -98.5 -35c-44.667 0 -77.167 11.667 -97.5 35s-30.5 57 -30.5 101v175h73v-164
c0 -21.333 3.83301 -38.666 11.5 -51.999s21.5 -20 41.5 -20c19.333 0 33.166 5.16699 41.499 15.5s12.5 25.5 12.5 45.5v117z" />
    <glyph glyph-name="T" unicode="T" horiz-adv-x="281" 
d="M103 0v746h-92v77h259v-77h-92v-746h-75z" />
    <glyph glyph-name="U" unicode="U" horiz-adv-x="326" 
d="M216 823h76v-692c0 -93.333 -43 -140 -129 -140s-129 46.667 -129 140v692h76v-692c0 -43.333 17.667 -65 53 -65s53 21.667 53 65v692z" />
    <glyph glyph-name="V" unicode="V" horiz-adv-x="338" 
d="M114 0l-101.999 823h79l14 -116.5c5.33301 -43.667 10.5 -89 15.5 -136l15.5 -140.5l14.5 -130c4.33301 -40 7.83301 -75 10.5 -105s4.66699 -51.333 6 -64c1.33301 13.333 3.66602 34.833 6.99902 64.5l12 104.5l15 130l16.5 140.5l16.5 136
c5.33301 43.667 10.333 82.5 15 116.5h76l-109 -823h-102z" />
    <glyph glyph-name="W" unicode="W" horiz-adv-x="526" 
d="M318 0l-10.9961 101.499l-12 119.5l-12 124c-4 41.333 -7.5 79.666 -10.5 114.999l-8 92.5c-2.33301 26.333 -3.83301 45.5 -4.5 57.5c-0.666992 -12 -2.16699 -31.167 -4.5 -57.5s-5.33301 -57.166 -9 -92.499l-11.5 -115l-12.5 -124l-13 -119.5
c-4.33301 -38.333 -8.5 -72.166 -12.5 -101.499h-93l-92 823h79c4 -34 8.16699 -71.667 12.5 -113l13 -127.5l12.5 -129.5l11 -118.5c3.33301 -36.333 6.16602 -68.5 8.49902 -96.5s4.16602 -48.667 5.49902 -62l6 62c2.66699 28 6 60.167 10 96.5l13 118.5l14 129.5
c4.66699 43.667 9.5 86.167 14.5 127.5l13.5 113h76l11.5 -113l13 -127.5l12.5 -129.5l11 -118.5c3.33301 -36.333 6.16602 -68.5 8.49902 -96.5s4.16602 -48.667 5.49902 -62l6.5 62l10 96.5l12.5 118.5l14 129.5c4.66699 43.667 9.5 86.167 14.5 127.5l13.5 113h80
l-104 -823h-92z" />
    <glyph glyph-name="X" unicode="X" horiz-adv-x="339" 
d="M252 0c-8 28 -16.5 60.333 -25.5 97l-25.5 107l-21.5 94c-6.33301 28 -10.5 47.667 -12.5 59c-2 -11.333 -6 -31 -12 -59l-21 -94l-25.5 -106.5c-9 -36.333 -17.5 -68.833 -25.5 -97.5h-78l120 439l-102 384h81c6 -22 12.333 -47.667 19 -77l19.5 -86.5l17 -78
c5 -23.667 8.5 -41.5 10.5 -53.5c2 12 5.5 29.833 10.5 53.5s10.833 49.667 17.5 78l20 86.5c6.66699 29.333 13 55 19 77h79l-104 -382l122 -441h-82z" />
    <glyph glyph-name="Y" unicode="Y" horiz-adv-x="332" 
d="M125 0v369l-116 454h80l22 -90.5l23 -97.5l20 -88.5c6 -27 10.333 -47.833 13 -62.5c2.66699 14.667 7 35.5 13 62.5l20.5 88.5l24 97.5l23.5 90.5h74l-120 -454v-369h-77z" />
    <glyph glyph-name="Z" unicode="Z" horiz-adv-x="307" 
d="M25 0v76l182 673h-175v74h251v-69l-179 -677h179v-77h-258z" />
    <glyph glyph-name="bracketleft" unicode="[" horiz-adv-x="247" 
d="M74 -80v983h151v-56h-96v-872h96v-55h-151z" />
    <glyph glyph-name="backslash" unicode="\" horiz-adv-x="241" 
d="M178 0l-172 823h56l172 -823h-56z" />
    <glyph glyph-name="bracketright" unicode="]" horiz-adv-x="247" 
d="M74 -80v55h96v872h-96v56h151v-983h-151z" />
    <glyph glyph-name="asciicircum" unicode="^" horiz-adv-x="314" 
d="M221 507l-62 254l-67 -254h-55l86 316h69l84 -316h-55z" />
    <glyph glyph-name="underscore" unicode="_" horiz-adv-x="297" 
d="M-1 -108v51h299v-51h-299z" />
    <glyph glyph-name="grave" unicode="`" horiz-adv-x="275" 
d="M171 656l-134 161h88l113 -161h-67z" />
    <glyph glyph-name="a" unicode="a" horiz-adv-x="284" 
d="M190 0c-1.33301 5.33301 -2.33008 11.001 -2.99707 17.001s-1 12.667 -1 20c-16.667 -30.667 -41.334 -46 -74.001 -46c-28 0 -49.833 7.66699 -65.5 23s-23.5 40.333 -23.5 75v91c0 30 4.16699 55.167 12.5 75.5s19.666 37.5 33.999 51.5s31.166 25.833 50.499 35.5
s40 19.167 62 28.5v135c0 17.333 -3.16699 30.666 -9.5 39.999s-18.166 14 -35.499 14c-18 0 -30 -4.66699 -36 -14s-9 -22.666 -9 -39.999v-130h-61v131c0 40.667 8.66699 71.167 26 91.5s44.666 30.5 81.999 30.5c72.667 0 109 -40.667 109 -122v-436
c0 -14.667 0.333008 -28.334 1 -41.001s2 -22.667 4 -30h-63zM182.003 316.001c-20 -7.33301 -36.167 -15.1689 -48.5 -23.502s-21.666 -18.166 -27.999 -29.499s-10.5 -24.166 -12.5 -38.499s-3 -30.833 -3 -49.5v-66c0 -34 15.667 -51 47 -51c10 0 19.167 3 27.5 9
s14.166 16 17.499 30v219z" />
    <glyph glyph-name="b" unicode="b" horiz-adv-x="303" 
d="M203 510c0 31.333 -14.667 47 -44 47c-11.333 0 -21.833 -3.33301 -31.5 -10s-16.834 -16.667 -21.501 -30v-410c4.66699 -13.333 11.834 -23.5 21.501 -30.5s20.167 -10.5 31.5 -10.5c15.333 0 26.5 3.83301 33.5 11.5s10.5 21.167 10.5 40.5v392zM37 0l0.00292969 823
h69v-234c7.33301 12 17.5 21.667 30.5 29s27.833 11 44.5 11c31.333 0 54.166 -8.83301 68.499 -26.5s21.5 -46.834 21.5 -87.501v-396c0 -43.333 -8 -75.166 -24 -95.499s-42 -30.5 -78 -30.5c-20.667 0 -37.834 5 -51.501 15s-24.5 22.667 -32.5 38
c-1.33301 -8 -2.83301 -15.833 -4.5 -23.5s-3.83398 -15.167 -6.50098 -22.5h-37z" />
    <glyph glyph-name="c" unicode="c" horiz-adv-x="283" 
d="M190 253h64v-138c0 -37.333 -8.83301 -67.333 -26.5 -90s-45.5 -34 -83.5 -34s-66.333 11.5 -85 34.5s-28 53.5 -28 91.5v384c0 38 9.33301 68.833 28 92.5s47 35.5 85 35.5s65.5 -11.667 82.5 -35s25.5 -54 25.5 -92v-134h-62v135c0 17.333 -3.83301 30.833 -11.5 40.5
s-19.167 14.5 -34.5 14.5s-26.833 -5 -34.5 -15s-11.5 -23.667 -11.5 -41v-385c0 -37.333 15.333 -56 46 -56s46 18.333 46 55v137z" />
    <glyph glyph-name="d" unicode="d" horiz-adv-x="303" 
d="M197 518c-5.33301 13.333 -12.833 23.501 -22.5 30.501s-20.167 10.5 -31.5 10.5c-15.333 0 -26.333 -3.83301 -33 -11.5s-10 -20.834 -10 -39.501v-390c0 -19.333 3.33301 -32.833 10 -40.5s17.667 -11.5 33 -11.5c11.333 0 21.833 3.5 31.5 10.5
s17.167 17.167 22.5 30.5v411zM207 0.000976562c-0.666992 7.33301 -1.16602 14.832 -1.49902 22.499s-0.5 15.5 -0.5 23.5c-7.33301 -16.667 -17.833 -29.667 -31.5 -39s-31.834 -14 -54.501 -14c-58.667 0 -88 38.667 -88 116v406c0 40.667 7.33301 69.834 22 87.501
s37.667 26.5 69 26.5c16 0 30.5 -3.66699 43.5 -11s23.5 -17 31.5 -29v234h68v-823h-58z" />
    <glyph glyph-name="e" unicode="e" 
d="M184 502c0 36.667 -15.333 55 -46 55c-28.667 0 -43 -18.333 -43 -55v-149h89v149zM184 252h65v-136c0 -83.333 -37 -125 -111 -125c-71.333 0 -107 41.667 -107 125v386c0 42 9.16699 73.667 27.5 95s44.833 32 79.5 32c74 0 111 -42.333 111 -127v-199h-154v-187
c0 -36.667 14.333 -55 43 -55c30.667 0 46 18.333 46 55v136z" />
    <glyph glyph-name="f" unicode="f" horiz-adv-x="191" 
d="M40 0l-0.000976562 558h-30v61h30v86c0 38.667 6.83301 68.834 20.5 90.501s38.5 32.5 74.5 32.5c8 0 16 -0.5 24 -1.5s15 -2.5 21 -4.5v-59c-7.33301 2 -15.666 3 -24.999 3c-16 0 -27.833 -4.83301 -35.5 -14.5s-11.5 -25.834 -11.5 -48.501v-84h70v-61h-70v-558h-68z
" />
    <glyph glyph-name="g" unicode="g" horiz-adv-x="303" 
d="M199 68c-7.33301 -12 -17.833 -21.501 -31.5 -28.501s-29.167 -10.5 -46.5 -10.5c-31.333 0 -54.166 8.66699 -68.499 26s-21.5 46.333 -21.5 87v367c0 40 7.5 69.333 22.5 88s36.833 28 65.5 28c21.333 0 38.833 -4.5 52.5 -13.5s24.834 -22.167 33.501 -39.5
c0 8 0.166992 16 0.5 24s0.833008 15.667 1.5 23h58v-651c0 -38 -9.16699 -67 -27.5 -87s-46.833 -30 -85.5 -30c-21.333 0 -39.333 2.66699 -54 8s-26.334 13 -35.001 23s-14.834 22.167 -18.501 36.5s-5.5 30.833 -5.5 49.5v25h62v-28c0 -17.333 4 -30.666 12 -39.999
s20.667 -14 38 -14c32 0 48 18 48 54v103zM199 510.999c-5.33301 13.333 -13 23.5 -23 30.5s-21 10.5 -33 10.5c-17.333 0 -29 -4.16699 -35 -12.5s-9 -19.833 -9 -34.5v-361c0 -17.333 3.16699 -29.833 9.5 -37.5s17.833 -11.5 34.5 -11.5c12 0 23 3.33301 33 10
s17.667 16.667 23 30v376z" />
    <glyph glyph-name="h" unicode="h" horiz-adv-x="302" 
d="M199 0v511.001c0 18 -3 30.833 -9 38.5s-16.333 11.5 -31 11.5c-10 0 -20 -3 -30 -9s-17.667 -15.667 -23 -29v-523h-69v823h69v-239c9.33301 13.333 21 24.166 35 32.499s29.667 12.5 47 12.5c28 0 48.333 -9 61 -27s19 -47 19 -87v-515h-69z" />
    <glyph glyph-name="i" unicode="i" horiz-adv-x="147" 
d="M39 698v125h69v-125h-69zM39 0v619h69v-619h-69z" />
    <glyph glyph-name="j" unicode="j" horiz-adv-x="163" 
d="M-32 -72c5.33301 -1.33301 11.167 -2.33301 17.5 -3s12.5 -1 18.5 -1c33.333 0 50 21 50 63v632h69v-632c0 -46 -9.83301 -79.333 -29.5 -100s-49.5 -31 -89.5 -31c-7.33301 0 -13.833 0.333008 -19.5 1s-11.167 1.66699 -16.5 3v68zM54.001 698v125h69v-125h-69z" />
    <glyph glyph-name="k" unicode="k" horiz-adv-x="300" 
d="M216 0l-112 318v-318h-67v823h67v-471l112 267h73l-121 -274l124 -345h-76z" />
    <glyph glyph-name="l" unicode="l" horiz-adv-x="143" 
d="M37 0v823h69v-823h-69z" />
    <glyph glyph-name="m" unicode="m" horiz-adv-x="439" 
d="M336 0v514.998c0 30.667 -11.667 46 -35 46c-9.33301 0 -18 -3 -26 -9s-14.667 -15.667 -20 -29v-523h-69v515c0 30.667 -11.667 46 -35 46c-8.66699 0 -17 -3 -25 -9s-14.667 -15.667 -20 -29v-523h-69v619h58c2 -15.333 3 -30.666 3 -45.999
c8.66699 17.333 20 31 34 41s29.667 15 47 15c36 0 58.333 -18 67 -54c8.66699 16.667 20.167 29.834 34.5 39.501s30.5 14.5 48.5 14.5c26 0 45 -9.5 57 -28.5s18 -47.167 18 -84.5v-516h-68z" />
    <glyph glyph-name="n" unicode="n" horiz-adv-x="302" 
d="M199 0l0.00195312 511c0 18 -3 30.833 -9 38.5s-16.333 11.5 -31 11.5c-10 0 -20 -3 -30 -9s-17.667 -15.667 -23 -29v-523h-69v619h58c2 -15.333 3 -31 3 -47c9.33301 17.333 21.666 31.166 36.999 41.499s32.666 15.5 51.999 15.5c28 0 48.5 -9.16699 61.5 -27.5
s19.5 -47.166 19.5 -86.499v-515h-69z" />
    <glyph glyph-name="o" unicode="o" horiz-adv-x="290" 
d="M31 505c0 40 9.33301 70.667 28 92s47.334 32 86.001 32c38 0 66.5 -10.667 85.5 -32s28.5 -52 28.5 -92v-391c0 -40 -9.5 -70.5 -28.5 -91.5s-47.5 -31.5 -85.5 -31.5c-38.667 0 -67.334 10.5 -86.001 31.5s-28 51.5 -28 91.5v391zM192 503
c0 17.333 -3.16699 30.833 -9.5 40.5s-18.833 14.5 -37.5 14.5s-31.167 -4.83301 -37.5 -14.5s-9.5 -23.167 -9.5 -40.5v-389c0 -17.333 3.16699 -30.5 9.5 -39.5s18.833 -13.5 37.5 -13.5s31.167 4.66699 37.5 14s9.5 23 9.5 41v387z" />
    <glyph glyph-name="p" unicode="p" horiz-adv-x="303" 
d="M203 500c0 19.333 -3.5 32.833 -10.5 40.5s-18.167 11.5 -33.5 11.5c-11.333 0 -21.833 -3.33301 -31.5 -10s-16.834 -16.667 -21.501 -30v-412c4.66699 -13.333 11.834 -23.333 21.501 -30s20.167 -10 31.5 -10c15.333 0 26.5 3.83301 33.5 11.5s10.5 20.5 10.5 38.5
v390zM37 -139v758h58c2 -15.333 3 -31 3 -47c7.33301 17.333 17.666 30.5 30.999 39.5s31.333 13.5 54 13.5c28.667 0 50.5 -9.33301 65.5 -28s22.5 -48 22.5 -88v-405c0 -41.333 -7.16699 -70.5 -21.5 -87.5s-37.166 -25.5 -68.499 -25.5c-16.667 0 -31.5 3.5 -44.5 10.5
s-23.167 16.167 -30.5 27.5v-168h-69z" />
    <glyph glyph-name="q" unicode="q" horiz-adv-x="303" 
d="M197 513c-5.33301 13.333 -12.833 23.5 -22.5 30.5s-20.167 10.5 -31.5 10.5c-15.333 0 -26.333 -4 -33 -12s-10 -21.333 -10 -40v-392c0 -18 3.33301 -30.833 10 -38.5s17.667 -11.5 33 -11.5c11.333 0 21.833 3.33301 31.5 10s17.167 16.667 22.5 30v413zM197 -139v168
c-8 -11.333 -18.5 -20.5 -31.5 -27.5s-27.5 -10.5 -43.5 -10.5c-31.333 0 -54.333 8.5 -69 25.5s-22 46.167 -22 87.5v405c0 40 7.5 69.333 22.5 88s36.833 28 65.5 28c22 0 40 -5 54 -15s24.667 -22.667 32 -38c0 16 1 31.667 3 47h57v-758h-68z" />
    <glyph glyph-name="r" unicode="r" horiz-adv-x="207" 
d="M37 0v619h58c2 -15.333 3 -30.333 3 -45c8.66699 18 19.167 31 31.5 39s26.833 12 43.5 12c7.33301 0 14.333 -1.33301 21 -4v-77c-3.33301 2.66699 -8 4.5 -14 5.5s-11.667 1.5 -17 1.5c-10.667 0 -21.167 -2.5 -31.5 -7.5s-18.833 -14.833 -25.5 -29.5v-514h-69z" />
    <glyph glyph-name="s" unicode="s" horiz-adv-x="278" 
d="M181 179c0 13.333 -1.83105 24.832 -5.49805 34.499s-11.834 22.167 -24.501 37.5c-14 16.667 -29.667 32.5 -47 47.5s-32.333 30.167 -45 45.5c-13.333 14.667 -22 29.334 -26 44.001s-6 34 -6 58v64c0 42.667 9.33301 73.167 28 91.5s46 27.5 82 27.5
c42 0 70.833 -9.5 86.5 -28.5s23.5 -49.167 23.5 -90.5v-101h-63v101c0 15.333 -4.33301 27.5 -13 36.5s-19.334 13.5 -32.001 13.5c-30 0 -45 -16.667 -45 -50v-73c0 -14.667 1.83301 -26.167 5.5 -34.5s11.167 -18.5 22.5 -30.5c13.333 -14.667 28.333 -28.667 45 -42
s31.334 -27.333 44.001 -42c15.333 -18 25.666 -35.5 30.999 -52.5s8 -38.833 8 -65.5v-67c0 -39.333 -9.5 -67.833 -28.5 -85.5s-47.833 -26.5 -86.5 -26.5c-72 0 -108 38.333 -108 115v101h62v-99c0 -15.333 4.5 -27.5 13.5 -36.5s20.167 -13.5 33.5 -13.5
c30 0 45 16.667 45 50v71z" />
    <glyph glyph-name="t" unicode="t" horiz-adv-x="191" 
d="M180 -4c-3.33301 -1.33301 -8.16797 -2.50098 -14.501 -3.50098s-12.166 -1.5 -17.499 -1.5c-36.667 0 -64 11.333 -82 34s-27 54 -27 94v439h-29v61h29v196h69v-196h70v-61h-70v-439c0 -25.333 4.5 -43.166 13.5 -53.499s24.167 -15.5 45.5 -15.5h6.5
c2.33301 0 4.5 0.333008 6.5 1v-55z" />
    <glyph glyph-name="u" unicode="u" horiz-adv-x="300" 
d="M204 0c-0.666992 7.33301 -1.16797 14.667 -1.50098 22s-0.5 15 -0.5 23c-9.33301 -16.667 -21.5 -29.5 -36.5 -38.5s-32.167 -13.5 -51.5 -13.5c-53.333 0 -80 35.667 -80 107v519h69v-508c0 -18.667 3 -31.667 9 -39s15.667 -11 29 -11
c10.667 0 20.834 2.83301 30.501 8.5s17.167 15.167 22.5 28.5v521h69v-619h-59z" />
    <glyph glyph-name="v" unicode="v" horiz-adv-x="277" 
d="M101 0l-90 619h69l17 -122c6 -44 11.5 -87 16.5 -129l13.5 -115.5c4 -35 7 -62.5 9 -82.5c2 20 5.33301 47.5 10 82.5l15.5 115.5l18 129c6.33301 44 12.5 84.667 18.5 122h66l-94 -619h-69z" />
    <glyph glyph-name="w" unicode="w" horiz-adv-x="418" 
d="M253 0l-46 462l-52 -462h-82l-60 619h65l39 -486l57 486h67l51 -486l47 486h65l-68 -619h-83z" />
    <glyph glyph-name="x" unicode="x" horiz-adv-x="284" 
d="M205 0c-6 22 -12.167 46.001 -18.5 72.001l-18.5 77.5l-16.5 72.5c-5 22.667 -8.83301 42 -11.5 58l-12 -58c-4.66699 -22.667 -10 -46.834 -16 -72.501l-18 -77.5c-6 -26 -12 -50 -18 -72h-69l90 329l-78 290h72l14 -59l15.5 -66c5 -22 9.5 -42.667 13.5 -62
s7 -34.333 9 -45c2 10.667 5 25.667 9 45s8.5 40 13.5 62l15.5 66l14 59h69l-78 -289l91 -330h-72z" />
    <glyph glyph-name="y" unicode="y" horiz-adv-x="277" 
d="M19 -70c9.33301 -3.33301 20.667 -4.99805 34 -4.99805c14 0 24.167 5.66699 30.5 17s11.166 26.666 14.499 45.999l4 25l-91 606h72c3.33301 -23.333 6.83301 -49.333 10.5 -78l11 -89l10.5 -91.5l9.5 -86c3 -27 5.5 -51 7.5 -72s3.66699 -37.5 5 -49.5l5.5 49.5
c2.33301 21 5.16602 44.833 8.49902 71.5l11 86l12 92l12 89c4 28.667 8 54.667 12 78h66l-94 -627c-3.33301 -22 -7.33301 -41.333 -12 -58s-11.167 -30.834 -19.5 -42.501s-19.166 -20.5 -32.499 -26.5s-30 -9 -50 -9c-6.66699 0 -13.167 0.5 -19.5 1.5
s-12.166 2.16699 -17.499 3.5v69z" />
    <glyph glyph-name="z" unicode="z" horiz-adv-x="256" 
d="M25 0v64l141 487h-139v68h205v-64l-138 -485h137v-70h-206z" />
    <glyph glyph-name="braceleft" unicode="{" horiz-adv-x="261" 
d="M235 -80c-46 0 -79.167 10.833 -99.5 32.5s-30.5 53.834 -30.5 96.501v219c0 12.667 -1.16699 22 -3.5 28s-6.16602 12.667 -11.499 20l-74 95l74 96c5.33301 6.66699 9.16602 13 11.499 19s3.5 15.667 3.5 29v217c0 42.667 10.167 75.167 30.5 97.5s53.5 33.5 99.5 33.5
h8v-56h-7c-27.333 0 -46.833 -5.83301 -58.5 -17.5s-17.5 -31.167 -17.5 -58.5v-207c0 -22 -2 -39.167 -6 -51.5s-10.667 -24.5 -20 -36.5l-51 -65l51 -65c9.33301 -12.667 16 -25.334 20 -38.001s6 -29.667 6 -51v-206c0 -27.333 5.83301 -46.833 17.5 -58.5
s31.167 -17.5 58.5 -17.5h7v-55h-8z" />
    <glyph glyph-name="bar" unicode="|" horiz-adv-x="193" 
d="M68 -80v983h56v-983h-56z" />
    <glyph glyph-name="braceright" unicode="}" horiz-adv-x="261" 
d="M16 -80v55h7c27.333 0 46.833 5.83301 58.5 17.5s17.5 31.167 17.5 58.5v206c0 21.333 2 38.333 6 51s10.667 25.334 20 38.001l51 65l-51 65c-9.33301 12 -16 24.167 -20 36.5s-6 29.5 -6 51.5v207c0 27.333 -5.83301 46.833 -17.5 58.5s-31.167 17.5 -58.5 17.5h-7v56
h8c46 0 79.167 -11.167 99.5 -33.5s30.5 -54.833 30.5 -97.5v-217c0 -13.333 1.16699 -23 3.5 -29s6.16602 -12.333 11.499 -19l74 -96l-74 -95c-5.33301 -7.33301 -9.16602 -14 -11.499 -20s-3.5 -15.333 -3.5 -28v-219c0 -42.667 -10.167 -74.834 -30.5 -96.501
s-53.5 -32.5 -99.5 -32.5h-8z" />
    <glyph glyph-name="asciitilde" unicode="~" horiz-adv-x="463" 
d="M427 407c-14 -13.333 -29.498 -23.332 -46.498 -29.999s-37.5 -10 -61.5 -10c-16.667 0 -32.667 2.66699 -48 8s-30.333 11 -45 17s-29.334 11.667 -44.001 17s-29.334 8 -44.001 8c-18 0 -35.333 -3.83301 -52 -11.5s-33 -21.167 -49 -40.5v69
c10 11.333 23 20.833 39 28.5s35.667 11.5 59 11.5c18.667 0 36.167 -2.66699 52.5 -8s32 -11 47 -17l43.5 -17c14 -5.33301 28.333 -8 43 -8c22 0 41.333 4.16699 58 12.5s32.667 21.166 48 38.499v-68z" />
    <glyph glyph-name="nonbreakingspace" unicode="&#xa0;" horiz-adv-x="136" 
 />
    <glyph glyph-name="exclamdown" unicode="&#xa1;" horiz-adv-x="160" 
d="M119.003 823v-108.993h-77.9961v108.993h77.9961zM105.003 664.01l14.999 -341.979v-321.98h-79.9941v320.98l15.998 342.979h48.9971z" />
    <glyph glyph-name="cent" unicode="&#xa2;" horiz-adv-x="281" 
d="M129 0v88.002c-33.333 2.66699 -58 15.5 -74 38.5s-24 52.167 -24 87.5v381c0 36 8 65.167 24 87.5s40.667 35.166 74 38.499v102h31v-102c32.667 -3.33301 56.167 -16.333 70.5 -39s21.5 -51.334 21.5 -86.001v-135h-55v136c0 14 -3.33301 26 -10 36s-16 16 -28 18v-492
c25.333 3.33301 38 21.333 38 54v134h57v-135c0 -34.667 -7.5 -63 -22.5 -85s-38.833 -34.667 -71.5 -38v-89h-31zM131 651.002c-13.333 -2.66699 -23.167 -8.83398 -29.5 -18.501s-9.5 -21.5 -9.5 -35.5v-383c0 -33.333 13 -51.666 39 -54.999v492z" />
    <glyph glyph-name="sterling" unicode="&#xa3;" horiz-adv-x="286" 
d="M265 23c-15.333 -20.667 -37.9941 -30.9971 -67.9941 -30.9971c-11.333 0 -22 2 -32 6s-19.5 8.5 -28.5 13.5s-17.667 9.5 -26 13.5s-16.833 6 -25.5 6c-10.667 0 -20.834 -2.83301 -30.501 -8.5s-19.834 -16.167 -30.501 -31.5h-4v69
c6.66699 9.33301 14.167 17.166 22.5 23.499s17.833 10.166 28.5 11.499c1.33301 14.667 2.5 28.167 3.5 40.5s1.66699 25.166 2 38.499s0.666016 28 0.999023 44s0.5 35.667 0.5 59v189h-55v58h55v149c0 52 10.333 91.5 31 118.5s50.667 40.5 90 40.5
c8.66699 0 17.167 -0.5 25.5 -1.5s16.166 -2.83301 23.499 -5.5v-70c-12 4.66699 -23.333 7 -34 7c-23.333 0 -40.833 -7.66699 -52.5 -23s-17.5 -37 -17.5 -65v-150h104v-58h-104v-189c0 -22.667 -0.333008 -42.667 -1 -60s-1.5 -33.5 -2.5 -48.5s-2.33301 -29.333 -4 -43
s-3.5 -27.834 -5.5 -42.501c9.33301 -3.33301 20.166 -8.5 32.499 -15.5s25.5 -10.5 39.5 -10.5c12.667 0 23.667 2.33301 33 7s17.666 13.334 24.999 26.001h4v-67z" />
    <glyph glyph-name="currency" unicode="&#xa4;" horiz-adv-x="482" 
d="M360 232c-17.333 -12.667 -35.833 -22.667 -55.5 -30s-41.167 -11 -64.5 -11c-22 0 -43.333 3.66699 -64 11s-38.667 17.333 -54 30l-65 -67l-41 41c3.33301 4 8 8.83301 14 14.5l19 18l19 18.5l14 14c-27.333 33.333 -41 73.333 -41 120c0 22 3.5 43 10.5 63
s17.167 38.667 30.5 56l-65 63l41 42l63 -66c33.333 28 73 42 119 42c44.667 0 85 -14.333 121 -43l61 67l42 -42l-65 -63c13.333 -16.667 23.5 -35.167 30.5 -55.5s10.5 -41.5 10.5 -63.5c0 -23.333 -3.66699 -45 -11 -65s-17.333 -38.333 -30 -55l66 -65l-42 -41zM378 391
c0 18.667 -3.66699 36.334 -11 53.001s-17.166 31.167 -29.499 43.5s-27 22 -44 29s-34.833 10.5 -53.5 10.5c-19.333 0 -37.166 -3.5 -53.499 -10.5s-30.666 -16.667 -42.999 -29s-22 -26.833 -29 -43.5s-10.5 -34.334 -10.5 -53.001c0 -19.333 3.5 -37.333 10.5 -54
s16.667 -31.167 29 -43.5s26.666 -22 42.999 -29s34.166 -10.5 53.499 -10.5c18.667 0 36.5 3.5 53.5 10.5s31.667 16.667 44 29s22.166 26.833 29.499 43.5s11 34.667 11 54z" />
    <glyph glyph-name="yen" unicode="&#xa5;" horiz-adv-x="340" 
d="M203 92v-92h-72v92h-114v61h114v96h-114v61h114v57l-119 456h82l77 -338l79 338h76l-123 -457v-56h114v-61h-114v-96h114v-61h-114z" />
    <glyph glyph-name="brokenbar" unicode="&#xa6;" horiz-adv-x="193" 
d="M68 490v413h56v-413h-56zM68 -80v413h56v-413h-56z" />
    <glyph glyph-name="section" unicode="&#xa7;" horiz-adv-x="287" 
d="M183 60c0 16 -0.999023 27.834 -2.99902 35.501s-6.33301 15.167 -13 22.5c-19.333 21.333 -37.5 39 -54.5 53s-32.167 29 -45.5 45c-12 14 -21.833 28.5 -29.5 43.5s-11.5 33.833 -11.5 56.5v99c0 25.333 5.16699 47.166 15.5 65.499s24.833 31.166 43.5 38.499
c-19.333 18 -33.166 34.833 -41.499 50.5s-12.5 36.5 -12.5 62.5v87c0 75.333 37.667 113 113 113c42.667 0 71.5 -10.667 86.5 -32s22.5 -53.333 22.5 -96v-95h-62v100c0 18 -3.16699 32.167 -9.5 42.5s-18.166 15.5 -35.499 15.5c-31.333 0 -47 -16 -47 -48v-86
c0 -14 0.833008 -25.5 2.5 -34.5s6.16699 -17.167 13.5 -24.5c19.333 -20 37.166 -36.833 53.499 -50.5s31.833 -28.5 46.5 -44.5c8 -8.66699 14.5 -16.5 19.5 -23.5s9.16699 -14.333 12.5 -22s5.66602 -16 6.99902 -25s2 -19.833 2 -32.5v-98
c0 -25.333 -5.33301 -46.166 -16 -62.499s-24.667 -28.5 -42 -36.5c10 -10 18.333 -19.167 25 -27.5s12 -17 16 -26s7 -18.5 9 -28.5s3 -22 3 -36v-87c0 -75.333 -37.667 -113 -113 -113c-22 0 -40 2.66699 -54 8s-25 13.333 -33 24s-13.667 24 -17 40s-5 34.667 -5 56v95
h62v-100c0 -18.667 3.16699 -33 9.5 -43s18.166 -15 35.499 -15c31.333 0 47 16 47 48v86zM190.001 359.001c0 14 -0.835938 25.6689 -2.50293 35.002s-4.66699 17.666 -9 24.999s-10.5 14.333 -18.5 21l-30 24c-14 -1.33301 -23.833 -6.16602 -29.5 -14.499
s-8.5 -19.833 -8.5 -34.5v-81c0 -14 0.833008 -25.833 2.5 -35.5s4.83398 -18.167 9.50098 -25.5s10.834 -14.5 18.501 -21.5s17.167 -14.833 28.5 -23.5c14.667 1.33301 24.834 6.16602 30.501 14.499s8.5 20.166 8.5 35.499v81z" />
    <glyph glyph-name="dieresis" unicode="&#xa8;" horiz-adv-x="293" 
d="M187 668v125h69v-125h-69zM37 668v125h69v-125h-69z" />
    <glyph glyph-name="copyright" unicode="&#xa9;" horiz-adv-x="516" 
d="M485 221c0 -41.333 -4.5 -76.666 -13.5 -105.999s-22.667 -53.166 -41 -71.499s-41.833 -31.666 -70.5 -39.999s-62.667 -12.5 -102 -12.5s-73.333 4.16699 -102 12.5s-52.167 21.666 -70.5 39.999s-32 42.166 -41 71.499s-13.5 64.666 -13.5 105.999v381
c0 41.333 4.5 76.666 13.5 105.999s22.667 53.166 41 71.499s41.833 31.666 70.5 39.999s62.667 12.5 102 12.5s73.333 -4.16699 102 -12.5s52.167 -21.666 70.5 -39.999s32 -42.166 41 -71.499s13.5 -64.666 13.5 -105.999v-381zM433 607
c0 32.667 -3.16699 60.167 -9.5 82.5s-16.333 40.333 -30 54s-31.667 23.5 -54 29.5s-49.5 9 -81.5 9s-59.167 -3 -81.5 -9s-40.5 -15.833 -54.5 -29.5s-24 -31.667 -30 -54s-9 -49.833 -9 -82.5v-393c0 -31.333 3.16699 -58 9.5 -80s16.5 -39.833 30.5 -53.5
s32 -23.667 54 -30s49 -9.5 81 -9.5s59.167 3.16699 81.5 9.5s40.333 16.333 54 30s23.667 31.5 30 53.5s9.5 48.667 9.5 80v393zM290 347h44.001v-107c0 -30 -5.83301 -52.167 -17.5 -66.5s-30.834 -21.5 -57.501 -21.5c-54.667 0 -82 29 -82 87v352c0 60 27.333 90 82 90
c50 0 75 -29.667 75 -89v-92h-44v92c0 26 -10.333 39 -31 39c-21.333 0 -32 -13.333 -32 -40v-352c0 -26 10.667 -39 32 -39c20.667 0 31 13 31 39v108z" />
    <glyph glyph-name="ordfeminine" unicode="&#xaa;" horiz-adv-x="217" 
d="M128 300c-1.33301 6.66699 -2 13.002 -2 19.002c-8.66699 -16 -21.334 -24 -38.001 -24c-14.667 0 -26 4.16699 -34 12.5s-12 22.166 -12 41.499v50c0 16 2.16699 29.5 6.5 40.5s10.166 20.167 17.499 27.5s16 13.666 26 18.999s20.667 10.333 32 15v77
c0 14.667 -6.33301 22 -19 22c-7.33301 0 -12.166 -1.83301 -14.499 -5.5s-3.5 -9.16699 -3.5 -16.5v-71h-41v72c0 44.667 20 67 60 67c40.667 0 61 -22.333 61 -67v-250c0 -6.66699 0.333008 -12.5 1 -17.5s1.33398 -8.83301 2.00098 -11.5h-42zM124 464.002
c-9.33301 -3.33301 -16.501 -7.16797 -21.501 -11.501s-8.66699 -9.16602 -11 -14.499s-3.66602 -11.5 -3.99902 -18.5s-0.5 -14.833 -0.5 -23.5v-35c0 -14 6 -21 18 -21c8.66699 0 15 4.66699 19 14v110z" />
    <glyph glyph-name="guillemotleft" unicode="&#xab;" horiz-adv-x="390" 
d="M19 296v75l157 112v-65l-120 -84l120 -88v-68zM214 296v75l157 112v-65l-120 -84l120 -88v-68z" />
    <glyph glyph-name="logicalnot" unicode="&#xac;" horiz-adv-x="419" 
d="M310 0v389h-290v73h361v-462h-71z" />
    <glyph glyph-name="registered" unicode="&#xae;" horiz-adv-x="516" 
d="M485 221c0 -41.333 -4.5 -76.666 -13.5 -105.999s-22.667 -53.166 -41 -71.499s-41.833 -31.666 -70.5 -39.999s-62.667 -12.5 -102 -12.5s-73.333 4.16699 -102 12.5s-52.167 21.666 -70.5 39.999s-32 42.166 -41 71.499s-13.5 64.666 -13.5 105.999v381
c0 41.333 4.5 76.666 13.5 105.999s22.667 53.166 41 71.499s41.833 31.666 70.5 39.999s62.667 12.5 102 12.5s73.333 -4.16699 102 -12.5s52.167 -21.666 70.5 -39.999s32 -42.166 41 -71.499s13.5 -64.666 13.5 -105.999v-381zM433 607
c0 32.667 -3.16699 60.167 -9.5 82.5s-16.333 40.333 -30 54s-31.667 23.5 -54 29.5s-49.5 9 -81.5 9s-59.167 -3 -81.5 -9s-40.5 -15.833 -54.5 -29.5s-24 -31.667 -30 -54s-9 -49.833 -9 -82.5v-393c0 -31.333 3.16699 -58 9.5 -80s16.5 -39.833 30.5 -53.5
s32 -23.667 54 -30s49 -9.5 81 -9.5s59.167 3.16699 81.5 9.5s40.333 16.333 54 30s23.667 31.5 30 53.5s9.5 48.667 9.5 80v393zM298 574c0 17.333 -2.83301 30.167 -8.5 38.5s-16.5 12.5 -32.5 12.5h-30v-190h30c14.667 0 25.167 3.83301 31.5 11.5s9.5 18.167 9.5 31.5
v96zM299 157.001c-5.33301 40 -10.834 79.001 -16.501 117.001s-12.167 76.333 -19.5 115h-36v-232h-49v518h79c30.667 0 53.334 -7.16699 68.001 -21.5s22 -38.833 22 -73.5v-103c0 -40 -12.333 -65.667 -37 -77c8.66699 -40.667 16.5 -81.334 23.5 -122.001
s13.5 -81 19.5 -121h-54z" />
    <glyph glyph-name="macron" unicode="&#xaf;" horiz-adv-x="304" 
d="M37 700v59h230v-59h-230z" />
    <glyph glyph-name="degree" unicode="&#xb0;" horiz-adv-x="305" 
d="M152 560c-40 0 -70.167 12.167 -90.5 36.5s-30.5 55.833 -30.5 94.5c0 38 10.167 69.833 30.5 95.5s50.5 38.5 90.5 38.5s70.167 -12.833 90.5 -38.5s30.5 -57.5 30.5 -95.5c0 -38.667 -10.167 -70.167 -30.5 -94.5s-50.5 -36.5 -90.5 -36.5zM151 603
c26.667 0 46 7.5 58 22.5s18 36.833 18 65.5s-6 50.667 -18 66s-31.333 23 -58 23c-25.333 0 -44.5 -7.66699 -57.5 -23s-19.5 -37.333 -19.5 -66c0 -58.667 25.667 -88 77 -88z" />
    <glyph glyph-name="plusminus" unicode="&#xb1;" horiz-adv-x="462" 
d="M203 224v167h-166v57h166v165h57v-165h166v-57h-166v-167h-57zM37 132v57h389v-57h-389z" />
    <glyph glyph-name="twosuperior" unicode="&#xb2;" horiz-adv-x="185" 
d="M27 422v75c0 12 0.5 22.667 1.5 32s2.83301 18.333 5.5 27s6.66699 17.5 12 26.5s12 19.5 20 31.5l23 35c6 9.33301 10.667 17.833 14 25.5s5.66602 15.167 6.99902 22.5s2 16 2 26v44c0 16 -6.66699 24 -20 24c-12.667 0 -19 -8 -19 -24v-72h-46v71
c0 25.333 5.33301 43.666 16 54.999s27 17 49 17c44 0 66 -24 66 -72v-48c0 -20.667 -3.5 -40 -10.5 -58s-17.833 -37 -32.5 -57c-9.33301 -13.333 -16.666 -24.5 -21.999 -33.5s-9.5 -17.333 -12.5 -25s-4.83301 -15.167 -5.5 -22.5s-1 -15.666 -1 -24.999v-29h84v-46h-131
z" />
    <glyph glyph-name="threesuperior" unicode="&#xb3;" horiz-adv-x="186" 
d="M113 586c0 16 -6.66699 24.001 -20 24.001h-21v43h23c7.33301 0 12 2.16699 14 6.5s3 10.166 3 17.499v90c0 16 -6.33301 24 -19 24s-19 -8 -19 -24v-73h-46v73c0 25.333 5.33301 43.5 16 54.5s27 16.5 49 16.5s38.167 -5.66699 48.5 -17s15.5 -29.666 15.5 -54.999v-91
c0 -21.333 -9 -36 -27 -44c9.33301 -2.66699 16.333 -7.33398 21 -14.001s7 -16.667 7 -30v-100c0 -21.333 -5.33301 -38.333 -16 -51s-27 -19 -49 -19s-38.5 6.33301 -49.5 19s-16.5 29.667 -16.5 51v81h47v-81c0 -16 6.33301 -24 19 -24c13.333 0 20 8 20 24v99z" />
    <glyph glyph-name="acute" unicode="&#xb4;" horiz-adv-x="275" 
d="M37 656l112 161h89l-135 -161h-66z" />
    <glyph glyph-name="paragraph" unicode="&#xb6;" horiz-adv-x="423" 
d="M282 -134l-0.000976562 884h-87v-779c0 -34 -8 -62 -24 -84s-40.333 -33 -73 -33c-14.667 0 -29 2.33301 -43 7v53c10 -2.66699 18 -4 24 -4c18 0 31 4.66699 39 14s12 25 12 47v631h-16c-35.333 0 -60.333 10 -75 30s-22 46 -22 78c0 15.333 1.83301 29.833 5.5 43.5
s9.5 25.667 17.5 36s18.333 18.5 31 24.5s28.334 9 47.001 9h286v-73h-59v-884h-63zM129.999 750h-18c-15.333 0 -26.333 -5.5 -33 -16.5s-10 -24.833 -10 -41.5c0 -15.333 3.16699 -28.333 9.5 -39s16.833 -16 31.5 -16h20v113z" />
    <glyph glyph-name="periodcentered" unicode="&#xb7;" horiz-adv-x="133" 
d="M31 340v125h71v-125h-71z" />
    <glyph glyph-name="cedilla" unicode="&#xb8;" horiz-adv-x="133" 
d="M45 -149v25.001h8c7.33301 0 11 4 11 12v20h-27v72h58v-90c0 -12.667 -3 -22.334 -9 -29.001s-16 -10 -30 -10h-11z" />
    <glyph glyph-name="onesuperior" unicode="&#xb9;" horiz-adv-x="125" 
d="M45 422v336h-22v45h10c11.333 0 17 6.33301 17 19v11h41v-411h-46z" />
    <glyph glyph-name="ordmasculine" unicode="&#xba;" horiz-adv-x="220" 
d="M46 578c0 45.333 21.333 68 64 68s64 -22.667 64 -68v-215c0 -45.333 -21.333 -68 -64 -68s-64 22.667 -64 68v215zM129 576c0 7.33301 -1.33301 13 -4 17s-7.66699 6 -15 6c-12.667 0 -19 -7.66699 -19 -23v-212c0 -14.667 6.33301 -22 19 -22
c7.33301 0 12.333 1.83301 15 5.5s4 9.16699 4 16.5v212z" />
    <glyph glyph-name="guillemotright" unicode="&#xbb;" horiz-adv-x="390" 
d="M19 178v68l120 88l-120 84v65l157 -112v-75zM214 178v68l120 88l-120 84v65l157 -112v-75z" />
    <glyph glyph-name="onequarter" unicode="&#xbc;" horiz-adv-x="480" 
d="M97 422v336h-22v45h10c11.333 0 17 6.33301 17 19v11h41v-411h-46zM31 0l362 823h51l-361 -823h-52zM369 115c0 40.667 0.332031 73.667 0.999023 99s1.33398 48.333 2.00098 69l-20 -69l-30 -99h47zM368.999 -10v82h-88v40l88 289h43v-286h20v-43h-20v-82h-43z" />
    <glyph glyph-name="onehalf" unicode="&#xbd;" horiz-adv-x="480" 
d="M97 422v336h-22v45h10c11.333 0 17 6.33301 17 19v11h41v-411h-46zM31 0l362 823h51l-361 -823h-52zM309 -10v75c0 12 0.5 22.667 1.5 32s2.83301 18.333 5.5 27s6.66699 17.5 12 26.5s12 19.5 20 31.5l23 35c6 9.33301 10.667 17.833 14 25.5
s5.66602 15.167 6.99902 22.5s2 16 2 26v44c0 16 -6.66699 24 -20 24c-12.667 0 -19 -8 -19 -24v-72h-46v71c0 25.333 5.33301 43.666 16 54.999s27 17 49 17c44 0 66 -24 66 -72v-48c0 -20.667 -3.5 -40 -10.5 -58s-17.833 -37 -32.5 -57
c-9.33301 -13.333 -16.666 -24.5 -21.999 -33.5s-9.5 -17.333 -12.5 -25s-4.83301 -15.167 -5.5 -22.5s-1 -15.666 -1 -24.999v-29h84v-46h-131z" />
    <glyph glyph-name="threequarters" unicode="&#xbe;" horiz-adv-x="480" 
d="M134 586c0 16 -6.66699 24.001 -20 24.001h-21v43h23c7.33301 0 12 2.16699 14 6.5s3 10.166 3 17.499v90c0 16 -6.33301 24 -19 24s-19 -8 -19 -24v-73h-46v73c0 25.333 5.33301 43.5 16 54.5s27 16.5 49 16.5s38.167 -5.66699 48.5 -17s15.5 -29.666 15.5 -54.999v-91
c0 -21.333 -9 -36 -27 -44c9.33301 -2.66699 16.333 -7.33398 21 -14.001s7 -16.667 7 -30v-100c0 -21.333 -5.33301 -38.333 -16 -51s-27 -19 -49 -19s-38.5 6.33301 -49.5 19s-16.5 29.667 -16.5 51v81h47v-81c0 -16 6.33301 -24 19 -24c13.333 0 20 8 20 24v99z
M31 0.000976562l362 823h51l-361 -823h-52zM359 115.001c0 40.667 0.332031 73.667 0.999023 99s1.33398 48.333 2.00098 69l-20 -69l-30 -99h47zM358.999 -9.99902v82h-88v40l88 289h43v-286h20v-43h-20v-82h-43z" />
    <glyph glyph-name="questiondown" unicode="&#xbf;" horiz-adv-x="299" 
d="M195.007 636.012l-0.000976562 -110.993c0 -19.333 -0.833008 -36.499 -2.5 -51.498s-4.5 -28.665 -8.5 -40.998c-3.99902 -12.332 -9.33203 -24.1641 -15.999 -35.4971c-6.66602 -11.333 -14.999 -22.666 -24.998 -33.999
c-9.33301 -10.666 -16.999 -20.332 -22.999 -28.998c-5.99902 -8.66699 -10.499 -17.833 -13.499 -27.499s-5 -21.165 -6 -34.498c-0.999023 -13.332 -1.49902 -30.6641 -1.49902 -51.9961v-86.9951c0 -43.3311 16.999 -64.9961 50.9961 -64.9961
c35.3311 0 52.9971 21.332 52.9971 63.9961v144.991h72.9961v-143.991c0 -48.6631 -10 -84.4941 -29.999 -107.493s-51.9971 -34.498 -95.9941 -34.498c-43.3311 0 -75.1621 11.499 -95.4941 34.498s-30.498 59.1631 -30.498 108.493v85.9951
c0 40.6641 3.83301 73.3291 11.5 97.9941c7.66602 24.665 20.165 47.3301 37.4971 67.9951c11.999 13.333 21.332 24.832 27.998 34.498c6.66699 9.66602 11.833 19.165 15.499 28.498c3.66699 9.33301 5.83398 19.666 6.50098 30.999s1 25.666 1 42.999v112.993h70.9961z
M195.006 823v-124.992h-70.9961v124.992h70.9961z" />
    <glyph glyph-name="Agrave" unicode="&#xc0;" horiz-adv-x="335" 
d="M245 0l-18 138h-123l-18 -138h-74l113 823h89l107 -823h-76zM218 208l-26 210.5c-8.66699 69.667 -17 140.167 -25 211.5l-26.5 -211.5l-27.5 -210.5h105zM152 860l-134 161h88l113 -161h-67z" />
    <glyph glyph-name="Aacute" unicode="&#xc1;" horiz-adv-x="335" 
d="M245 0l-18 138h-123l-18 -138h-74l113 823h89l107 -823h-76zM218 208l-26 210.5c-8.66699 69.667 -17 140.167 -25 211.5l-26.5 -211.5l-27.5 -210.5h105zM117 860l112 161h89l-135 -161h-66z" />
    <glyph glyph-name="Acircumflex" unicode="&#xc2;" horiz-adv-x="335" 
d="M245 0l-18 138h-123l-18 -138h-74l113 823h89l107 -823h-76zM218 208l-26 210.5c-8.66699 69.667 -17 140.167 -25 211.5l-26.5 -211.5l-27.5 -210.5h105zM248 860l-79 123l-82 -123h-64l108 161h80l104 -161h-67z" />
    <glyph glyph-name="Atilde" unicode="&#xc3;" horiz-adv-x="335" 
d="M245 0l-18 138h-123l-18 -138h-74l113 823h89l107 -823h-76zM218 208l-26 210.5c-8.66699 69.667 -17 140.167 -25 211.5l-26.5 -211.5l-27.5 -210.5h105zM287 917c-6 -7.33301 -14.165 -13.498 -24.498 -18.498s-22.5 -7.5 -36.5 -7.5c-11.333 0 -22 1.66699 -32 5
s-19.833 7.16602 -29.5 11.499s-19.334 8.16602 -29.001 11.499s-19.834 5 -30.501 5s-21 -2.66699 -31 -8s-18.667 -13 -26 -23v61c6.66699 7.33301 14.834 13.666 24.501 18.999s21.5 8 35.5 8c12 0 23 -1.66699 33 -5s19.833 -7.16602 29.5 -11.499
s19.167 -8.16602 28.5 -11.499s19.666 -5 30.999 -5c10.667 0 21 2.66699 31 8s18.667 12.666 26 21.999v-61z" />
    <glyph glyph-name="Adieresis" unicode="&#xc4;" horiz-adv-x="335" 
d="M245 0l-18 138h-123l-18 -138h-74l113 823h89l107 -823h-76zM218 208l-26 210.5c-8.66699 69.667 -17 140.167 -25 211.5l-26.5 -211.5l-27.5 -210.5h105zM208 872v125h69v-125h-69zM58 872v125h69v-125h-69z" />
    <glyph glyph-name="Aring" unicode="&#xc5;" horiz-adv-x="335" 
d="M245 0l-18 138h-123l-18 -138h-74l113 823h89l107 -823h-76zM218 208l-26 210.5c-8.66699 69.667 -17 140.167 -25 211.5l-26.5 -211.5l-27.5 -210.5h105zM264 941c0 -22.667 -8.16699 -41.334 -24.5 -56.001s-40.5 -22 -72.5 -22s-56 7.33301 -72 22
s-24 33.334 -24 56.001c0 23.333 8 42.5 24 57.5s40 22.5 72 22.5s56.167 -7.5 72.5 -22.5s24.5 -34.167 24.5 -57.5zM224 941c0 30.667 -19 46 -57 46c-38.667 0 -58 -15.333 -58 -46c0 -30 19.333 -45 58 -45c38 0 57 15 57 45z" />
    <glyph glyph-name="AE" unicode="&#xc6;" horiz-adv-x="462" 
d="M218 0v138h-113l-19 -138h-74l113 823h312v-77h-142v-289h101v-76h-101v-306h146v-75h-223zM218 746h-33l-71 -538h104v538z" />
    <glyph glyph-name="Ccedilla" unicode="&#xc7;" horiz-adv-x="309" 
d="M213 302h68.998v-170c0 -48 -9.5 -83.5 -28.5 -106.5s-49.5 -34.5 -91.5 -34.5c-87.333 0 -131 46.333 -131 139v560c0 94.667 43.667 142 131 142c80 0 120 -46.667 120 -140v-146h-69v145c0 22 -3.66699 38.167 -11 48.5s-20.666 15.5 -39.999 15.5
c-36 0 -54 -21.333 -54 -64v-560c0 -43.333 18 -65 54 -65c18.667 0 31.834 5.33301 39.501 16s11.5 27 11.5 49v171zM142.998 -149v25.001h8c7.33301 0 11 4 11 12v20h-27v72h58v-90c0 -12.667 -3 -22.334 -9 -29.001s-16 -10 -30 -10h-11z" />
    <glyph glyph-name="Egrave" unicode="&#xc8;" 
d="M37 0v823h218v-77h-142v-289h100v-76h-100v-306h147v-75h-223zM125 860l-134 161h88l113 -161h-67z" />
    <glyph glyph-name="Eacute" unicode="&#xc9;" 
d="M37 0v823h218v-77h-142v-289h100v-76h-100v-306h147v-75h-223zM89 860l112 161h89l-135 -161h-66z" />
    <glyph glyph-name="Ecircumflex" unicode="&#xca;" 
d="M37 0v823h218v-77h-142v-289h100v-76h-100v-306h147v-75h-223zM225 860l-79 123l-82 -123h-64l108 161h80l104 -161h-67z" />
    <glyph glyph-name="Edieresis" unicode="&#xcb;" 
d="M37 0v823h218v-77h-142v-289h100v-76h-100v-306h147v-75h-223zM187 872v125h69v-125h-69zM37 872v125h69v-125h-69z" />
    <glyph glyph-name="Igrave" unicode="&#xcc;" horiz-adv-x="154" 
d="M39 0v823h76v-823h-76zM62 860l-134 161h88l113 -161h-67z" />
    <glyph glyph-name="Iacute" unicode="&#xcd;" horiz-adv-x="154" 
d="M39 0v823h76v-823h-76zM28 860l112 161h89l-135 -161h-66z" />
    <glyph glyph-name="Icircumflex" unicode="&#xce;" horiz-adv-x="154" 
d="M39 0v823h76v-823h-76zM157 860l-79 123l-82 -123h-64l108 161h80l104 -161h-67z" />
    <glyph glyph-name="Idieresis" unicode="&#xcf;" horiz-adv-x="154" 
d="M39 0v823h76v-823h-76zM119 872v125h69v-125h-69zM-31 872v125h69v-125h-69z" />
    <glyph glyph-name="Eth" unicode="&#xd0;" horiz-adv-x="324" 
d="M35 0l-0.000976562 381h-25v76h25v366h129c42.667 0 74.834 -12.5 96.501 -37.5s32.5 -59.5 32.5 -103.5v-542c0 -93.333 -43 -140 -129 -140h-129zM217.999 682c0 17.333 -4.16797 32.333 -12.501 45s-22.166 19 -41.499 19h-53v-289h60v-76h-60v-306h53
c36 0 54 21.667 54 65v542z" />
    <glyph glyph-name="Ntilde" unicode="&#xd1;" horiz-adv-x="353" 
d="M242 0l-142 600.999c0.666992 -61.333 1 -122.166 1 -182.499v-182.5v-236h-66v823h91l126 -603c-0.666992 56.667 -1 112.5 -1 167.5v165.5v270h67v-823h-76zM296 916.999c-6 -7.33301 -14.165 -13.498 -24.498 -18.498s-22.5 -7.5 -36.5 -7.5
c-11.333 0 -22 1.66699 -32 5s-19.833 7.16602 -29.5 11.499s-19.334 8.16602 -29.001 11.499s-19.834 5 -30.501 5s-21 -2.66699 -31 -8s-18.667 -13 -26 -23v61c6.66699 7.33301 14.834 13.666 24.501 18.999s21.5 8 35.5 8c12 0 23 -1.66699 33 -5
s19.833 -7.16602 29.5 -11.499s19.167 -8.16602 28.5 -11.499s19.666 -5 30.999 -5c10.667 0 21 2.66699 31 8s18.667 12.666 26 21.999v-61z" />
    <glyph glyph-name="Ograve" unicode="&#xd2;" horiz-adv-x="321" 
d="M31 692c0 46 10.667 80.833 32 104.5s53.666 35.5 96.999 35.5c44 0 76.667 -11.833 98 -35.5s32 -58.5 32 -104.5v-561c0 -46 -10.667 -80.833 -32 -104.5s-54 -35.5 -98 -35.5c-43.333 0 -75.666 11.833 -96.999 35.5s-32 58.5 -32 104.5v561zM214 692
c0 42 -18 63 -54 63c-35.333 0 -53 -21 -53 -63v-561c0 -43.333 17.667 -65 53 -65c36 0 54 21.667 54 65v561zM145 860l-134 161h88l113 -161h-67z" />
    <glyph glyph-name="Oacute" unicode="&#xd3;" horiz-adv-x="321" 
d="M31 692c0 46 10.667 80.833 32 104.5s53.666 35.5 96.999 35.5c44 0 76.667 -11.833 98 -35.5s32 -58.5 32 -104.5v-561c0 -46 -10.667 -80.833 -32 -104.5s-54 -35.5 -98 -35.5c-43.333 0 -75.666 11.833 -96.999 35.5s-32 58.5 -32 104.5v561zM214 692
c0 42 -18 63 -54 63c-35.333 0 -53 -21 -53 -63v-561c0 -43.333 17.667 -65 53 -65c36 0 54 21.667 54 65v561zM110 860l112 161h89l-135 -161h-66z" />
    <glyph glyph-name="Ocircumflex" unicode="&#xd4;" horiz-adv-x="321" 
d="M31 692c0 46 10.667 80.833 32 104.5s53.666 35.5 96.999 35.5c44 0 76.667 -11.833 98 -35.5s32 -58.5 32 -104.5v-561c0 -46 -10.667 -80.833 -32 -104.5s-54 -35.5 -98 -35.5c-43.333 0 -75.666 11.833 -96.999 35.5s-32 58.5 -32 104.5v561zM214 692
c0 42 -18 63 -54 63c-35.333 0 -53 -21 -53 -63v-561c0 -43.333 17.667 -65 53 -65c36 0 54 21.667 54 65v561zM241 860l-79 123l-82 -123h-64l108 161h80l104 -161h-67z" />
    <glyph glyph-name="Otilde" unicode="&#xd5;" horiz-adv-x="321" 
d="M31 692c0 46 10.667 80.833 32 104.5s53.666 35.5 96.999 35.5c44 0 76.667 -11.833 98 -35.5s32 -58.5 32 -104.5v-561c0 -46 -10.667 -80.833 -32 -104.5s-54 -35.5 -98 -35.5c-43.333 0 -75.666 11.833 -96.999 35.5s-32 58.5 -32 104.5v561zM214 692
c0 42 -18 63 -54 63c-35.333 0 -53 -21 -53 -63v-561c0 -43.333 17.667 -65 53 -65c36 0 54 21.667 54 65v561zM280 917c-6 -7.33301 -14.165 -13.498 -24.498 -18.498s-22.5 -7.5 -36.5 -7.5c-11.333 0 -22 1.66699 -32 5s-19.833 7.16602 -29.5 11.499
s-19.334 8.16602 -29.001 11.499s-19.834 5 -30.501 5s-21 -2.66699 -31 -8s-18.667 -13 -26 -23v61c6.66699 7.33301 14.834 13.666 24.501 18.999s21.5 8 35.5 8c12 0 23 -1.66699 33 -5s19.833 -7.16602 29.5 -11.499s19.167 -8.16602 28.5 -11.499s19.666 -5 30.999 -5
c10.667 0 21 2.66699 31 8s18.667 12.666 26 21.999v-61z" />
    <glyph glyph-name="Odieresis" unicode="&#xd6;" horiz-adv-x="321" 
d="M31 692c0 46 10.667 80.833 32 104.5s53.666 35.5 96.999 35.5c44 0 76.667 -11.833 98 -35.5s32 -58.5 32 -104.5v-561c0 -46 -10.667 -80.833 -32 -104.5s-54 -35.5 -98 -35.5c-43.333 0 -75.666 11.833 -96.999 35.5s-32 58.5 -32 104.5v561zM214 692
c0 42 -18 63 -54 63c-35.333 0 -53 -21 -53 -63v-561c0 -43.333 17.667 -65 53 -65c36 0 54 21.667 54 65v561zM201 872v125h69v-125h-69zM51 872v125h69v-125h-69z" />
    <glyph glyph-name="multiply" unicode="&#xd7;" horiz-adv-x="462" 
d="M348 261l-118 118l-117 -117l-40 40l117 117l-117 117l41 40l116 -116l118 117l40 -40l-117 -118l118 -118z" />
    <glyph glyph-name="Oslash" unicode="&#xd8;" horiz-adv-x="321" 
d="M31 692c0 46 10.668 80.834 32.001 104.501s53.666 35.5 96.999 35.5c27.333 0 50.333 -4.66699 69 -14l22 99h39l-28 -127c18.667 -22.667 28 -55.334 28 -98.001v-561c0 -46 -10.667 -80.833 -32 -104.5s-54 -35.5 -98 -35.5c-27.333 0 -50.333 4.66699 -69 14l-22 -99
h-38l27 126c-18 24 -27 57 -27 99v561zM214.001 568.001l-103 -469c8 -22 24.333 -33 49 -33c36 0 54 21.667 54 65v437zM107.001 255.001l102 469c-8 20.667 -24.333 31 -49 31c-35.333 0 -53 -21 -53 -63v-437z" />
    <glyph glyph-name="Ugrave" unicode="&#xd9;" horiz-adv-x="326" 
d="M216 823h76v-692c0 -93.333 -43 -140 -129 -140s-129 46.667 -129 140v692h76v-692c0 -43.333 17.667 -65 53 -65s53 21.667 53 65v692zM148 860l-134 161h88l113 -161h-67z" />
    <glyph glyph-name="Uacute" unicode="&#xda;" horiz-adv-x="326" 
d="M216 823h76v-692c0 -93.333 -43 -140 -129 -140s-129 46.667 -129 140v692h76v-692c0 -43.333 17.667 -65 53 -65s53 21.667 53 65v692zM112 860l112 161h89l-135 -161h-66z" />
    <glyph glyph-name="Ucircumflex" unicode="&#xdb;" horiz-adv-x="326" 
d="M216 823h76v-692c0 -93.333 -43 -140 -129 -140s-129 46.667 -129 140v692h76v-692c0 -43.333 17.667 -65 53 -65s53 21.667 53 65v692zM243 860l-79 123l-82 -123h-64l108 161h80l104 -161h-67z" />
    <glyph glyph-name="Udieresis" unicode="&#xdc;" horiz-adv-x="326" 
d="M216 823h76v-692c0 -93.333 -43 -140 -129 -140s-129 46.667 -129 140v692h76v-692c0 -43.333 17.667 -65 53 -65s53 21.667 53 65v692zM203 872v125h69v-125h-69zM53 872v125h69v-125h-69z" />
    <glyph glyph-name="Yacute" unicode="&#xdd;" horiz-adv-x="332" 
d="M125 0v369l-116 454h80l22 -90.5l23 -97.5l20 -88.5c6 -27 10.333 -47.833 13 -62.5c2.66699 14.667 7 35.5 13 62.5l20.5 88.5l24 97.5l23.5 90.5h74l-120 -454v-369h-77zM117 860l112 161h89l-135 -161h-66z" />
    <glyph glyph-name="Thorn" unicode="&#xde;" horiz-adv-x="327" 
d="M234 529c0 47.333 -22 71 -66 71h-55v-397h56c43.333 0 65 24.333 65 73v253zM37 0l-0.000976562 823h76v-146h55c48 0 83.667 -12 107 -36s35 -61.333 35 -112v-253c0 -48 -11.667 -84.667 -35 -110s-58.666 -38 -105.999 -38h-56v-128h-76z" />
    <glyph glyph-name="germandbls" unicode="&#xdf;" horiz-adv-x="328" 
d="M153 63c6.66699 -2 16.3311 -2.99902 28.998 -2.99902c18 0 30.833 4.33301 38.5 13s11.5 23.667 11.5 45v223c0 20.667 -4.5 35 -13.5 43s-21.5 12 -37.5 12h-41v66h21c10.667 0 19.334 3 26.001 9s10 18.667 10 38v198c0 15.333 -3.33301 28.333 -10 39
s-18.667 16 -36 16s-29.5 -5.33301 -36.5 -16s-10.5 -23.667 -10.5 -39v-707h-67v709c0 40 9.33301 70.5 28 91.5s47.334 31.5 86.001 31.5c38 0 66.333 -10.5 85 -31.5s28 -51.5 28 -91.5v-200c0 -19.333 -3.5 -34.5 -10.5 -45.5s-14.167 -18.167 -21.5 -21.5
c19.333 -4.66699 35.5 -15.334 48.5 -32.001s19.5 -40.667 19.5 -72v-220c0 -43.333 -8.5 -75.333 -25.5 -96s-46.167 -31 -87.5 -31c-17.333 0 -29 1 -35 3z" />
    <glyph glyph-name="agrave" unicode="&#xe0;" horiz-adv-x="284" 
d="M190 0c-1.33301 5.33301 -2.33008 11.001 -2.99707 17.001s-1 12.667 -1 20c-16.667 -30.667 -41.334 -46 -74.001 -46c-28 0 -49.833 7.66699 -65.5 23s-23.5 40.333 -23.5 75v91c0 30 4.16699 55.167 12.5 75.5s19.666 37.5 33.999 51.5s31.166 25.833 50.499 35.5
s40 19.167 62 28.5v135c0 17.333 -3.16699 30.666 -9.5 39.999s-18.166 14 -35.499 14c-18 0 -30 -4.66699 -36 -14s-9 -22.666 -9 -39.999v-130h-61v131c0 40.667 8.66699 71.167 26 91.5s44.666 30.5 81.999 30.5c72.667 0 109 -40.667 109 -122v-436
c0 -14.667 0.333008 -28.334 1 -41.001s2 -22.667 4 -30h-63zM182.003 316.001c-20 -7.33301 -36.167 -15.1689 -48.5 -23.502s-21.666 -18.166 -27.999 -29.499s-10.5 -24.166 -12.5 -38.499s-3 -30.833 -3 -49.5v-66c0 -34 15.667 -51 47 -51c10 0 19.167 3 27.5 9
s14.166 16 17.499 30v219zM127.003 655.998l-134 161h88l113 -161h-67z" />
    <glyph glyph-name="aacute" unicode="&#xe1;" horiz-adv-x="284" 
d="M190 0c-1.33301 5.33301 -2.33008 11.001 -2.99707 17.001s-1 12.667 -1 20c-16.667 -30.667 -41.334 -46 -74.001 -46c-28 0 -49.833 7.66699 -65.5 23s-23.5 40.333 -23.5 75v91c0 30 4.16699 55.167 12.5 75.5s19.666 37.5 33.999 51.5s31.166 25.833 50.499 35.5
s40 19.167 62 28.5v135c0 17.333 -3.16699 30.666 -9.5 39.999s-18.166 14 -35.499 14c-18 0 -30 -4.66699 -36 -14s-9 -22.666 -9 -39.999v-130h-61v131c0 40.667 8.66699 71.167 26 91.5s44.666 30.5 81.999 30.5c72.667 0 109 -40.667 109 -122v-436
c0 -14.667 0.333008 -28.334 1 -41.001s2 -22.667 4 -30h-63zM182.003 316.001c-20 -7.33301 -36.167 -15.1689 -48.5 -23.502s-21.666 -18.166 -27.999 -29.499s-10.5 -24.166 -12.5 -38.499s-3 -30.833 -3 -49.5v-66c0 -34 15.667 -51 47 -51c10 0 19.167 3 27.5 9
s14.166 16 17.499 30v219zM91.0029 655.998l112 161h89l-135 -161h-66z" />
    <glyph glyph-name="acircumflex" unicode="&#xe2;" horiz-adv-x="284" 
d="M190 0c-1.33301 5.33301 -2.33008 11.001 -2.99707 17.001s-1 12.667 -1 20c-16.667 -30.667 -41.334 -46 -74.001 -46c-28 0 -49.833 7.66699 -65.5 23s-23.5 40.333 -23.5 75v91c0 30 4.16699 55.167 12.5 75.5s19.666 37.5 33.999 51.5s31.166 25.833 50.499 35.5
s40 19.167 62 28.5v135c0 17.333 -3.16699 30.666 -9.5 39.999s-18.166 14 -35.499 14c-18 0 -30 -4.66699 -36 -14s-9 -22.666 -9 -39.999v-130h-61v131c0 40.667 8.66699 71.167 26 91.5s44.666 30.5 81.999 30.5c72.667 0 109 -40.667 109 -122v-436
c0 -14.667 0.333008 -28.334 1 -41.001s2 -22.667 4 -30h-63zM182.003 316.001c-20 -7.33301 -36.167 -15.1689 -48.5 -23.502s-21.666 -18.166 -27.999 -29.499s-10.5 -24.166 -12.5 -38.499s-3 -30.833 -3 -49.5v-66c0 -34 15.667 -51 47 -51c10 0 19.167 3 27.5 9
s14.166 16 17.499 30v219zM222.003 655.998l-79 123l-82 -123h-64l108 161h80l104 -161h-67z" />
    <glyph glyph-name="atilde" unicode="&#xe3;" horiz-adv-x="284" 
d="M190 0c-1.33301 5.33301 -2.33008 11.001 -2.99707 17.001s-1 12.667 -1 20c-16.667 -30.667 -41.334 -46 -74.001 -46c-28 0 -49.833 7.66699 -65.5 23s-23.5 40.333 -23.5 75v91c0 30 4.16699 55.167 12.5 75.5s19.666 37.5 33.999 51.5s31.166 25.833 50.499 35.5
s40 19.167 62 28.5v135c0 17.333 -3.16699 30.666 -9.5 39.999s-18.166 14 -35.499 14c-18 0 -30 -4.66699 -36 -14s-9 -22.666 -9 -39.999v-130h-61v131c0 40.667 8.66699 71.167 26 91.5s44.666 30.5 81.999 30.5c72.667 0 109 -40.667 109 -122v-436
c0 -14.667 0.333008 -28.334 1 -41.001s2 -22.667 4 -30h-63zM182.003 316.001c-20 -7.33301 -36.167 -15.1689 -48.5 -23.502s-21.666 -18.166 -27.999 -29.499s-10.5 -24.166 -12.5 -38.499s-3 -30.833 -3 -49.5v-66c0 -34 15.667 -51 47 -51c10 0 19.167 3 27.5 9
s14.166 16 17.499 30v219zM263.003 712.998c-6 -7.33301 -14.165 -13.498 -24.498 -18.498s-22.5 -7.5 -36.5 -7.5c-11.333 0 -22 1.66699 -32 5s-19.833 7.16602 -29.5 11.499s-19.334 8.16602 -29.001 11.499s-19.834 5 -30.501 5s-21 -2.66699 -31 -8
s-18.667 -13 -26 -23v61c6.66699 7.33301 14.834 13.666 24.501 18.999s21.5 8 35.5 8c12 0 23 -1.66699 33 -5s19.833 -7.16602 29.5 -11.499s19.167 -8.16602 28.5 -11.499s19.666 -5 30.999 -5c10.667 0 21 2.66699 31 8s18.667 12.666 26 21.999v-61z" />
    <glyph glyph-name="adieresis" unicode="&#xe4;" horiz-adv-x="284" 
d="M190 0c-1.33301 5.33301 -2.33008 11.001 -2.99707 17.001s-1 12.667 -1 20c-16.667 -30.667 -41.334 -46 -74.001 -46c-28 0 -49.833 7.66699 -65.5 23s-23.5 40.333 -23.5 75v91c0 30 4.16699 55.167 12.5 75.5s19.666 37.5 33.999 51.5s31.166 25.833 50.499 35.5
s40 19.167 62 28.5v135c0 17.333 -3.16699 30.666 -9.5 39.999s-18.166 14 -35.499 14c-18 0 -30 -4.66699 -36 -14s-9 -22.666 -9 -39.999v-130h-61v131c0 40.667 8.66699 71.167 26 91.5s44.666 30.5 81.999 30.5c72.667 0 109 -40.667 109 -122v-436
c0 -14.667 0.333008 -28.334 1 -41.001s2 -22.667 4 -30h-63zM182.003 316.001c-20 -7.33301 -36.167 -15.1689 -48.5 -23.502s-21.666 -18.166 -27.999 -29.499s-10.5 -24.166 -12.5 -38.499s-3 -30.833 -3 -49.5v-66c0 -34 15.667 -51 47 -51c10 0 19.167 3 27.5 9
s14.166 16 17.499 30v219zM184.003 667.998v125h69v-125h-69zM34.0029 667.998v125h69v-125h-69z" />
    <glyph glyph-name="aring" unicode="&#xe5;" horiz-adv-x="284" 
d="M190 0c-1.33301 5.33301 -2.33008 11.001 -2.99707 17.001s-1 12.667 -1 20c-16.667 -30.667 -41.334 -46 -74.001 -46c-28 0 -49.833 7.66699 -65.5 23s-23.5 40.333 -23.5 75v91c0 30 4.16699 55.167 12.5 75.5s19.666 37.5 33.999 51.5s31.166 25.833 50.499 35.5
s40 19.167 62 28.5v135c0 17.333 -3.16699 30.666 -9.5 39.999s-18.166 14 -35.499 14c-18 0 -30 -4.66699 -36 -14s-9 -22.666 -9 -39.999v-130h-61v131c0 40.667 8.66699 71.167 26 91.5s44.666 30.5 81.999 30.5c72.667 0 109 -40.667 109 -122v-436
c0 -14.667 0.333008 -28.334 1 -41.001s2 -22.667 4 -30h-63zM182.003 316.001c-20 -7.33301 -36.167 -15.1689 -48.5 -23.502s-21.666 -18.166 -27.999 -29.499s-10.5 -24.166 -12.5 -38.499s-3 -30.833 -3 -49.5v-66c0 -34 15.667 -51 47 -51c10 0 19.167 3 27.5 9
s14.166 16 17.499 30v219zM238.003 736.998c0 -22.667 -8.16699 -41.334 -24.5 -56.001s-40.5 -22 -72.5 -22s-56 7.33301 -72 22s-24 33.334 -24 56.001c0 23.333 8 42.5 24 57.5s40 22.5 72 22.5s56.167 -7.5 72.5 -22.5s24.5 -34.167 24.5 -57.5zM198.003 736.998
c0 30.667 -19 46 -57 46c-38.667 0 -58 -15.333 -58 -46c0 -30 19.333 -45 58 -45c38 0 57 15 57 45z" />
    <glyph glyph-name="ae" unicode="&#xe6;" horiz-adv-x="433" 
d="M337 252l65 -0.000976562v-136c0 -83.333 -37 -125 -111 -125c-22.667 0 -41 4 -55 12s-25.333 20 -34 36c-7.33301 -13.333 -17.666 -24.666 -30.999 -33.999s-32 -14 -56 -14c-28 0 -50.333 7.66699 -67 23s-25 40.333 -25 75v91c0 30 4.16699 55.167 12.5 75.5
s19.666 37.5 33.999 51.5s31.166 25.833 50.499 35.5s40 19.167 62 28.5v136c0 17.333 -3.16699 30.5 -9.5 39.5s-18.166 13.5 -35.499 13.5s-29.166 -4.5 -35.499 -13.5s-9.5 -22.167 -9.5 -39.5v-131h-61v131c0 40.667 8.66699 71.167 26 91.5s44.666 30.5 81.999 30.5
c34 0 60 -9.66699 78 -29c17.333 19.333 42 29 74 29c74 0 111 -42.333 111 -127v-199h-154v-192c0 -17.333 3.83301 -30 11.5 -38s18.167 -12 31.5 -12c30.667 0 46 18.333 46 55v136zM182 315.999c-20 -7.33301 -36.167 -15.1699 -48.5 -23.5029
s-21.666 -18.166 -27.999 -29.499s-10.5 -24.166 -12.5 -38.499s-3 -30.833 -3 -49.5v-60c0 -19.333 3.5 -33.666 10.5 -42.999s19.167 -14 36.5 -14c10 0 19.167 3 27.5 9s14.166 16 17.499 30v219zM337 501.995c0 36.667 -15.333 55 -46 55c-28.667 0 -43 -18.333 -43 -55
v-149h89v149z" />
    <glyph glyph-name="ccedilla" unicode="&#xe7;" horiz-adv-x="283" 
d="M190 253h64v-138c0 -37.333 -8.83301 -67.333 -26.5 -90s-45.5 -34 -83.5 -34s-66.333 11.5 -85 34.5s-28 53.5 -28 91.5v384c0 38 9.33301 68.833 28 92.5s47 35.5 85 35.5s65.5 -11.667 82.5 -35s25.5 -54 25.5 -92v-134h-62v135c0 17.333 -3.83301 30.833 -11.5 40.5
s-19.167 14.5 -34.5 14.5s-26.833 -5 -34.5 -15s-11.5 -23.667 -11.5 -41v-385c0 -37.333 15.333 -56 46 -56s46 18.333 46 55v137zM125 -149v25.001h8c7.33301 0 11 4 11 12v20h-27v72h58v-90c0 -12.667 -3 -22.334 -9 -29.001s-16 -10 -30 -10h-11z" />
    <glyph glyph-name="egrave" unicode="&#xe8;" 
d="M184 502c0 36.667 -15.333 55 -46 55c-28.667 0 -43 -18.333 -43 -55v-149h89v149zM184 252h65v-136c0 -83.333 -37 -125 -111 -125c-71.333 0 -107 41.667 -107 125v386c0 42 9.16699 73.667 27.5 95s44.833 32 79.5 32c74 0 111 -42.333 111 -127v-199h-154v-187
c0 -36.667 14.333 -55 43 -55c30.667 0 46 18.333 46 55v136zM125 656l-134 161h88l113 -161h-67z" />
    <glyph glyph-name="eacute" unicode="&#xe9;" 
d="M184 502c0 36.667 -15.333 55 -46 55c-28.667 0 -43 -18.333 -43 -55v-149h89v149zM184 252h65v-136c0 -83.333 -37 -125 -111 -125c-71.333 0 -107 41.667 -107 125v386c0 42 9.16699 73.667 27.5 95s44.833 32 79.5 32c74 0 111 -42.333 111 -127v-199h-154v-187
c0 -36.667 14.333 -55 43 -55c30.667 0 46 18.333 46 55v136zM89 656l112 161h89l-135 -161h-66z" />
    <glyph glyph-name="ecircumflex" unicode="&#xea;" 
d="M184 502c0 36.667 -15.333 55 -46 55c-28.667 0 -43 -18.333 -43 -55v-149h89v149zM184 252h65v-136c0 -83.333 -37 -125 -111 -125c-71.333 0 -107 41.667 -107 125v386c0 42 9.16699 73.667 27.5 95s44.833 32 79.5 32c74 0 111 -42.333 111 -127v-199h-154v-187
c0 -36.667 14.333 -55 43 -55c30.667 0 46 18.333 46 55v136zM220 656l-79 123l-82 -123h-64l108 161h80l104 -161h-67z" />
    <glyph glyph-name="edieresis" unicode="&#xeb;" 
d="M184 502c0 36.667 -15.333 55 -46 55c-28.667 0 -43 -18.333 -43 -55v-149h89v149zM184 252h65v-136c0 -83.333 -37 -125 -111 -125c-71.333 0 -107 41.667 -107 125v386c0 42 9.16699 73.667 27.5 95s44.833 32 79.5 32c74 0 111 -42.333 111 -127v-199h-154v-187
c0 -36.667 14.333 -55 43 -55c30.667 0 46 18.333 46 55v136zM182 668v125h69v-125h-69zM32 668v125h69v-125h-69z" />
    <glyph glyph-name="igrave" unicode="&#xec;" horiz-adv-x="158" 
d="M50 0v619h69v-619h-69zM69 656l-134 161h88l113 -161h-67z" />
    <glyph glyph-name="iacute" unicode="&#xed;" horiz-adv-x="158" 
d="M39 0v619h69v-619h-69zM24 656l112 161h89l-135 -161h-66z" />
    <glyph glyph-name="icircumflex" unicode="&#xee;" horiz-adv-x="227" 
d="M79 0v619h69v-619h-69zM194 656l-79 123l-82 -123h-64l108 161h80l104 -161h-67z" />
    <glyph glyph-name="idieresis" unicode="&#xef;" horiz-adv-x="178" 
d="M54 0v619h69v-619h-69zM130 668v125h69v-125h-69zM-20 668v125h69v-125h-69z" />
    <glyph glyph-name="eth" unicode="&#xf0;" horiz-adv-x="321" 
d="M31 398c0 44 10.167 75.333 30.5 94s47.833 28 82.5 28c18 0 33.5 -4 46.5 -12s22.833 -18.667 29.5 -32v115c0 42.667 -5 76.667 -15 102l-103 -128l-27 23l110 137c-18 19.333 -46 29.333 -84 30v77c30 0 55.833 -4.16699 77.5 -12.5s39.834 -20.166 54.501 -35.499
l44 54l27 -23l-49 -60c12.667 -22.667 21.667 -49.334 27 -80.001s8 -65 8 -103v-438c0 -46 -10.667 -81.333 -32 -106s-54 -37 -98 -37c-42.667 0 -74.834 12.333 -96.501 37s-32.5 60 -32.5 106v264zM213 379l-4.00195 24c-1.33301 8 -3.66602 15 -6.99902 21
s-8.16602 11 -14.499 15s-14.833 6 -25.5 6c-36.667 0 -55 -20 -55 -60v-242c0 -23.333 4 -42 12 -56s21.667 -21 41 -21c35.333 0 53 21.667 53 65v248z" />
    <glyph glyph-name="ntilde" unicode="&#xf1;" horiz-adv-x="302" 
d="M199 0l0.00195312 511c0 18 -3 30.833 -9 38.5s-16.333 11.5 -31 11.5c-10 0 -20 -3 -30 -9s-17.667 -15.667 -23 -29v-523h-69v619h58c2 -15.333 3 -31 3 -47c9.33301 17.333 21.666 31.166 36.999 41.499s32.666 15.5 51.999 15.5c28 0 48.5 -9.16699 61.5 -27.5
s19.5 -47.166 19.5 -86.499v-515h-69zM272.002 713c-6 -7.33301 -14.165 -13.498 -24.498 -18.498s-22.5 -7.5 -36.5 -7.5c-11.333 0 -22 1.66699 -32 5s-19.833 7.16602 -29.5 11.499s-19.334 8.16602 -29.001 11.499s-19.834 5 -30.501 5s-21 -2.66699 -31 -8
s-18.667 -13 -26 -23v61c6.66699 7.33301 14.834 13.666 24.501 18.999s21.5 8 35.5 8c12 0 23 -1.66699 33 -5s19.833 -7.16602 29.5 -11.499s19.167 -8.16602 28.5 -11.499s19.666 -5 30.999 -5c10.667 0 21 2.66699 31 8s18.667 12.666 26 21.999v-61z" />
    <glyph glyph-name="ograve" unicode="&#xf2;" horiz-adv-x="290" 
d="M31 505c0 40 9.33301 70.667 28 92s47.334 32 86.001 32c38 0 66.5 -10.667 85.5 -32s28.5 -52 28.5 -92v-391c0 -40 -9.5 -70.5 -28.5 -91.5s-47.5 -31.5 -85.5 -31.5c-38.667 0 -67.334 10.5 -86.001 31.5s-28 51.5 -28 91.5v391zM192 503
c0 17.333 -3.16699 30.833 -9.5 40.5s-18.833 14.5 -37.5 14.5s-31.167 -4.83301 -37.5 -14.5s-9.5 -23.167 -9.5 -40.5v-389c0 -17.333 3.16699 -30.5 9.5 -39.5s18.833 -13.5 37.5 -13.5s31.167 4.66699 37.5 14s9.5 23 9.5 41v387zM130 656l-134 161h88l113 -161h-67z
" />
    <glyph glyph-name="oacute" unicode="&#xf3;" horiz-adv-x="290" 
d="M31 505c0 40 9.33301 70.667 28 92s47.334 32 86.001 32c38 0 66.5 -10.667 85.5 -32s28.5 -52 28.5 -92v-391c0 -40 -9.5 -70.5 -28.5 -91.5s-47.5 -31.5 -85.5 -31.5c-38.667 0 -67.334 10.5 -86.001 31.5s-28 51.5 -28 91.5v391zM192 503
c0 17.333 -3.16699 30.833 -9.5 40.5s-18.833 14.5 -37.5 14.5s-31.167 -4.83301 -37.5 -14.5s-9.5 -23.167 -9.5 -40.5v-389c0 -17.333 3.16699 -30.5 9.5 -39.5s18.833 -13.5 37.5 -13.5s31.167 4.66699 37.5 14s9.5 23 9.5 41v387zM94 656l112 161h89l-135 -161h-66z" />
    <glyph glyph-name="ocircumflex" unicode="&#xf4;" horiz-adv-x="290" 
d="M31 505c0 40 9.33301 70.667 28 92s47.334 32 86.001 32c38 0 66.5 -10.667 85.5 -32s28.5 -52 28.5 -92v-391c0 -40 -9.5 -70.5 -28.5 -91.5s-47.5 -31.5 -85.5 -31.5c-38.667 0 -67.334 10.5 -86.001 31.5s-28 51.5 -28 91.5v391zM192 503
c0 17.333 -3.16699 30.833 -9.5 40.5s-18.833 14.5 -37.5 14.5s-31.167 -4.83301 -37.5 -14.5s-9.5 -23.167 -9.5 -40.5v-389c0 -17.333 3.16699 -30.5 9.5 -39.5s18.833 -13.5 37.5 -13.5s31.167 4.66699 37.5 14s9.5 23 9.5 41v387zM225 656l-79 123l-82 -123h-64l108 161
h80l104 -161h-67z" />
    <glyph glyph-name="otilde" unicode="&#xf5;" horiz-adv-x="290" 
d="M31 505c0 40 9.33301 70.667 28 92s47.334 32 86.001 32c38 0 66.5 -10.667 85.5 -32s28.5 -52 28.5 -92v-391c0 -40 -9.5 -70.5 -28.5 -91.5s-47.5 -31.5 -85.5 -31.5c-38.667 0 -67.334 10.5 -86.001 31.5s-28 51.5 -28 91.5v391zM192 503
c0 17.333 -3.16699 30.833 -9.5 40.5s-18.833 14.5 -37.5 14.5s-31.167 -4.83301 -37.5 -14.5s-9.5 -23.167 -9.5 -40.5v-389c0 -17.333 3.16699 -30.5 9.5 -39.5s18.833 -13.5 37.5 -13.5s31.167 4.66699 37.5 14s9.5 23 9.5 41v387zM266 713
c-6 -7.33301 -14.165 -13.498 -24.498 -18.498s-22.5 -7.5 -36.5 -7.5c-11.333 0 -22 1.66699 -32 5s-19.833 7.16602 -29.5 11.499s-19.334 8.16602 -29.001 11.499s-19.834 5 -30.501 5s-21 -2.66699 -31 -8s-18.667 -13 -26 -23v61
c6.66699 7.33301 14.834 13.666 24.501 18.999s21.5 8 35.5 8c12 0 23 -1.66699 33 -5s19.833 -7.16602 29.5 -11.499s19.167 -8.16602 28.5 -11.499s19.666 -5 30.999 -5c10.667 0 21 2.66699 31 8s18.667 12.666 26 21.999v-61z" />
    <glyph glyph-name="odieresis" unicode="&#xf6;" horiz-adv-x="290" 
d="M31 505c0 40 9.33301 70.667 28 92s47.334 32 86.001 32c38 0 66.5 -10.667 85.5 -32s28.5 -52 28.5 -92v-391c0 -40 -9.5 -70.5 -28.5 -91.5s-47.5 -31.5 -85.5 -31.5c-38.667 0 -67.334 10.5 -86.001 31.5s-28 51.5 -28 91.5v391zM192 503
c0 17.333 -3.16699 30.833 -9.5 40.5s-18.833 14.5 -37.5 14.5s-31.167 -4.83301 -37.5 -14.5s-9.5 -23.167 -9.5 -40.5v-389c0 -17.333 3.16699 -30.5 9.5 -39.5s18.833 -13.5 37.5 -13.5s31.167 4.66699 37.5 14s9.5 23 9.5 41v387zM187 668v125h69v-125h-69zM37 668v125
h69v-125h-69z" />
    <glyph glyph-name="divide" unicode="&#xf7;" horiz-adv-x="462" 
d="M37 391v57h389v-57h-389zM195 518v125h71v-125h-71zM195 196v125h71v-125h-71z" />
    <glyph glyph-name="oslash" unicode="&#xf8;" horiz-adv-x="290" 
d="M31 505c0 40 9.33203 70.667 27.999 92s47.334 32 86.001 32c19.333 0 37.333 -3.33301 54 -10l22 94h38l-28 -118c18.667 -22 28 -52 28 -90v-391c0 -40 -9.5 -70.5 -28.5 -91.5s-47.5 -31.5 -85.5 -31.5c-21.333 0 -39.333 3 -54 9l-22 -94h-38l27 117
c-18 20.667 -27 51 -27 91v391zM191.999 428l-84 -354v-1c6.66699 -8 19 -12 37 -12c18.667 0 31.167 4.66699 37.5 14s9.5 23 9.5 41v312zM97.999 191l83 353c-7.33301 9.33301 -19.333 14 -36 14c-18.667 0 -31.167 -4.83301 -37.5 -14.5s-9.5 -23.167 -9.5 -40.5v-312z
" />
    <glyph glyph-name="ugrave" unicode="&#xf9;" horiz-adv-x="300" 
d="M204 0c-0.666992 7.33301 -1.16797 14.667 -1.50098 22s-0.5 15 -0.5 23c-9.33301 -16.667 -21.5 -29.5 -36.5 -38.5s-32.167 -13.5 -51.5 -13.5c-53.333 0 -80 35.667 -80 107v519h69v-508c0 -18.667 3 -31.667 9 -39s15.667 -11 29 -11
c10.667 0 20.834 2.83301 30.501 8.5s17.167 15.167 22.5 28.5v521h69v-619h-59zM134.999 656.001l-134 161h88l113 -161h-67z" />
    <glyph glyph-name="uacute" unicode="&#xfa;" horiz-adv-x="300" 
d="M204 0c-0.666992 7.33301 -1.16797 14.667 -1.50098 22s-0.5 15 -0.5 23c-9.33301 -16.667 -21.5 -29.5 -36.5 -38.5s-32.167 -13.5 -51.5 -13.5c-53.333 0 -80 35.667 -80 107v519h69v-508c0 -18.667 3 -31.667 9 -39s15.667 -11 29 -11
c10.667 0 20.834 2.83301 30.501 8.5s17.167 15.167 22.5 28.5v521h69v-619h-59zM98.999 656.001l112 161h89l-135 -161h-66z" />
    <glyph glyph-name="ucircumflex" unicode="&#xfb;" horiz-adv-x="300" 
d="M204 0c-0.666992 7.33301 -1.16797 14.667 -1.50098 22s-0.5 15 -0.5 23c-9.33301 -16.667 -21.5 -29.5 -36.5 -38.5s-32.167 -13.5 -51.5 -13.5c-53.333 0 -80 35.667 -80 107v519h69v-508c0 -18.667 3 -31.667 9 -39s15.667 -11 29 -11
c10.667 0 20.834 2.83301 30.501 8.5s17.167 15.167 22.5 28.5v521h69v-619h-59zM229.999 656.001l-79 123l-82 -123h-64l108 161h80l104 -161h-67z" />
    <glyph glyph-name="udieresis" unicode="&#xfc;" horiz-adv-x="300" 
d="M204 0c-0.666992 7.33301 -1.16797 14.667 -1.50098 22s-0.5 15 -0.5 23c-9.33301 -16.667 -21.5 -29.5 -36.5 -38.5s-32.167 -13.5 -51.5 -13.5c-53.333 0 -80 35.667 -80 107v519h69v-508c0 -18.667 3 -31.667 9 -39s15.667 -11 29 -11
c10.667 0 20.834 2.83301 30.501 8.5s17.167 15.167 22.5 28.5v521h69v-619h-59zM189.999 668.001v125h69v-125h-69zM39.999 668.001v125h69v-125h-69z" />
    <glyph glyph-name="yacute" unicode="&#xfd;" horiz-adv-x="277" 
d="M19 -70c9.33301 -3.33301 20.667 -4.99805 34 -4.99805c14 0 24.167 5.66699 30.5 17s11.166 26.666 14.499 45.999l4 25l-91 606h72c3.33301 -23.333 6.83301 -49.333 10.5 -78l11 -89l10.5 -91.5l9.5 -86c3 -27 5.5 -51 7.5 -72s3.66699 -37.5 5 -49.5l5.5 49.5
c2.33301 21 5.16602 44.833 8.49902 71.5l11 86l12 92l12 89c4 28.667 8 54.667 12 78h66l-94 -627c-3.33301 -22 -7.33301 -41.333 -12 -58s-11.167 -30.834 -19.5 -42.501s-19.166 -20.5 -32.499 -26.5s-30 -9 -50 -9c-6.66699 0 -13.167 0.5 -19.5 1.5
s-12.166 2.16699 -17.499 3.5v69zM88.001 656.002l112 161h89l-135 -161h-66z" />
    <glyph glyph-name="thorn" unicode="&#xfe;" horiz-adv-x="303" 
d="M37 -139v962.001h69v-234c7.33301 12 17.5 21.667 30.5 29s27.833 11 44.5 11c31.333 0 54.166 -8.83301 68.499 -26.5s21.5 -46.834 21.5 -87.501v-411c0 -41.333 -7.16699 -70.5 -21.5 -87.5s-37.166 -25.5 -68.499 -25.5c-16.667 0 -31.5 3.5 -44.5 10.5
s-23.167 16.167 -30.5 27.5v-168h-69zM203 506.001c0 18.667 -3.5 31.834 -10.5 39.501s-18.167 11.5 -33.5 11.5c-11.333 0 -21.833 -3.33301 -31.5 -10s-16.834 -16.667 -21.501 -30v-415c4.66699 -13.333 11.834 -23.333 21.501 -30s20.167 -10 31.5 -10
c15.333 0 26.5 3.66699 33.5 11s10.5 20.666 10.5 39.999v393z" />
    <glyph glyph-name="ydieresis" unicode="&#xff;" horiz-adv-x="277" 
d="M19 -70c9.33301 -3.33301 20.667 -4.99805 34 -4.99805c14 0 24.167 5.66699 30.5 17s11.166 26.666 14.499 45.999l4 25l-91 606h72c3.33301 -23.333 6.83301 -49.333 10.5 -78l11 -89l10.5 -91.5l9.5 -86c3 -27 5.5 -51 7.5 -72s3.66699 -37.5 5 -49.5l5.5 49.5
c2.33301 21 5.16602 44.833 8.49902 71.5l11 86l12 92l12 89c4 28.667 8 54.667 12 78h66l-94 -627c-3.33301 -22 -7.33301 -41.333 -12 -58s-11.167 -30.834 -19.5 -42.501s-19.166 -20.5 -32.499 -26.5s-30 -9 -50 -9c-6.66699 0 -13.167 0.5 -19.5 1.5
s-12.166 2.16699 -17.499 3.5v69zM180.001 668.002v125h69v-125h-69zM30.001 668.002v125h69v-125h-69z" />
    <glyph glyph-name="Amacron" unicode="&#x100;" horiz-adv-x="335" 
d="M245 0l-18 138h-123l-18 -138h-74l113 823h89l107 -823h-76zM218 208l-26 210.5c-8.66699 69.667 -17 140.167 -25 211.5l-26.5 -211.5l-27.5 -210.5h105zM52 904v59h230v-59h-230z" />
    <glyph glyph-name="amacron" unicode="&#x101;" horiz-adv-x="284" 
d="M190 0c-1.33301 5.33301 -2.33008 11.001 -2.99707 17.001s-1 12.667 -1 20c-16.667 -30.667 -41.334 -46 -74.001 -46c-28 0 -49.833 7.66699 -65.5 23s-23.5 40.333 -23.5 75v91c0 30 4.16699 55.167 12.5 75.5s19.666 37.5 33.999 51.5s31.166 25.833 50.499 35.5
s40 19.167 62 28.5v135c0 17.333 -3.16699 30.666 -9.5 39.999s-18.166 14 -35.499 14c-18 0 -30 -4.66699 -36 -14s-9 -22.666 -9 -39.999v-130h-61v131c0 40.667 8.66699 71.167 26 91.5s44.666 30.5 81.999 30.5c72.667 0 109 -40.667 109 -122v-436
c0 -14.667 0.333008 -28.334 1 -41.001s2 -22.667 4 -30h-63zM182.003 316.001c-20 -7.33301 -36.167 -15.1689 -48.5 -23.502s-21.666 -18.166 -27.999 -29.499s-10.5 -24.166 -12.5 -38.499s-3 -30.833 -3 -49.5v-66c0 -34 15.667 -51 47 -51c10 0 19.167 3 27.5 9
s14.166 16 17.499 30v219zM28.0029 699.998v59h230v-59h-230z" />
    <glyph glyph-name="Abreve" unicode="&#x102;" horiz-adv-x="335" 
d="M245 0l-18 138h-123l-18 -138h-74l113 823h89l107 -823h-76zM218 208l-26 210.5c-8.66699 69.667 -17 140.167 -25 211.5l-26.5 -211.5l-27.5 -210.5h105zM303 1015c0 -30 -2.66992 -54.667 -8.00293 -74s-13.5 -34.833 -24.5 -46.5s-24.833 -19.667 -41.5 -24
s-36 -6.5 -58 -6.5c-26 0 -47.667 2.16699 -65 6.5s-31.166 12.333 -41.499 24s-17.833 27.167 -22.5 46.5s-7 44 -7 74h61c0 -24 1.83301 -43.333 5.5 -58s8.5 -25.834 14.5 -33.501s13.5 -12.667 22.5 -15s19.167 -3.5 30.5 -3.5c10 0 19.333 1.16699 28 3.5
s16.334 7.33301 23.001 15s11.834 18.834 15.501 33.501s5.5 34 5.5 58h62z" />
    <glyph glyph-name="abreve" unicode="&#x103;" horiz-adv-x="284" 
d="M190 0c-1.33301 5.33301 -2.33008 11.001 -2.99707 17.001s-1 12.667 -1 20c-16.667 -30.667 -41.334 -46 -74.001 -46c-28 0 -49.833 7.66699 -65.5 23s-23.5 40.333 -23.5 75v91c0 30 4.16699 55.167 12.5 75.5s19.666 37.5 33.999 51.5s31.166 25.833 50.499 35.5
s40 19.167 62 28.5v135c0 17.333 -3.16699 30.666 -9.5 39.999s-18.166 14 -35.499 14c-18 0 -30 -4.66699 -36 -14s-9 -22.666 -9 -39.999v-130h-61v131c0 40.667 8.66699 71.167 26 91.5s44.666 30.5 81.999 30.5c72.667 0 109 -40.667 109 -122v-436
c0 -14.667 0.333008 -28.334 1 -41.001s2 -22.667 4 -30h-63zM182.003 316.001c-20 -7.33301 -36.167 -15.1689 -48.5 -23.502s-21.666 -18.166 -27.999 -29.499s-10.5 -24.166 -12.5 -38.499s-3 -30.833 -3 -49.5v-66c0 -34 15.667 -51 47 -51c10 0 19.167 3 27.5 9
s14.166 16 17.499 30v219zM277.003 810.998c0 -30 -2.66992 -54.667 -8.00293 -74s-13.5 -34.833 -24.5 -46.5s-24.833 -19.667 -41.5 -24s-36 -6.5 -58 -6.5c-26 0 -47.667 2.16699 -65 6.5s-31.166 12.333 -41.499 24s-17.833 27.167 -22.5 46.5s-7 44 -7 74h61
c0 -24 1.83301 -43.333 5.5 -58s8.5 -25.834 14.5 -33.501s13.5 -12.667 22.5 -15s19.167 -3.5 30.5 -3.5c10 0 19.333 1.16699 28 3.5s16.334 7.33301 23.001 15s11.834 18.834 15.501 33.501s5.5 34 5.5 58h62z" />
    <glyph glyph-name="Aogonek" unicode="&#x104;" horiz-adv-x="335" 
d="M350 -49c0 -32 -8 -56.6699 -24 -74.0029s-45 -26 -87 -26c-24 0 -43.833 5.83301 -59.5 17.5s-23.5 28.5 -23.5 50.5c0 19.333 7.5 36 22.5 50s37.167 23.667 66.5 29l-18 140h-123l-18 -138h-74l113 823h89l107 -823c-36.667 -5.33301 -65.167 -13.666 -85.5 -24.999
s-30.5 -25.666 -30.5 -42.999c0 -7.33301 2.83301 -14.666 8.5 -21.999s15.5 -11 29.5 -11c19.333 0 32.333 4.83301 39 14.5s10 22.167 10 37.5v11h58v-11zM218 207.997l-26 210.5c-8.66699 69.667 -17 140.167 -25 211.5l-26.5 -211.5l-27.5 -210.5h105z" />
    <glyph glyph-name="aogonek" unicode="&#x105;" horiz-adv-x="284" 
d="M282 -49c0 -32 -7.99707 -56.6719 -23.9971 -74.0049s-45 -26 -87 -26c-24 0 -43.833 5.83301 -59.5 17.5s-23.5 28.5 -23.5 50.5c0 20 8.5 37.333 25.5 52s42.5 24.334 76.5 29.001c-1.33301 4.66699 -2.33301 10.334 -3 17.001s-1 13.334 -1 20.001
c-16.667 -30.667 -41.334 -46 -74.001 -46c-28 0 -49.833 7.66699 -65.5 23s-23.5 40.333 -23.5 75v91c0 30 4.16699 55.167 12.5 75.5s19.666 37.5 33.999 51.5s31.166 25.833 50.499 35.5s40 19.167 62 28.5v135c0 17.333 -3.16699 30.666 -9.5 39.999
s-18.166 14 -35.499 14c-18 0 -30 -4.66699 -36 -14s-9 -22.666 -9 -39.999v-130h-61v131c0 40.667 8.66699 71.167 26 91.5s44.666 30.5 81.999 30.5c72.667 0 109 -40.667 109 -122v-436c0 -14.667 0.333008 -28.334 1 -41.001s2 -22.667 4 -30
c-36.667 -5.33301 -65.167 -13.666 -85.5 -24.999s-30.5 -25.666 -30.5 -42.999c0 -7.33301 2.83301 -14.666 8.5 -21.999s15.5 -11 29.5 -11c19.333 0 32.333 4.83301 39 14.5s10 22.167 10 37.5v11h58v-11zM182.003 315.995c-20 -7.33301 -36.167 -15.1689 -48.5 -23.502
s-21.666 -18.166 -27.999 -29.499s-10.5 -24.166 -12.5 -38.499s-3 -30.833 -3 -49.5v-66c0 -34 15.667 -51 47 -51c10 0 19.167 3 27.5 9s14.166 16 17.499 30v219z" />
    <glyph glyph-name="Cacute" unicode="&#x106;" horiz-adv-x="309" 
d="M213 302h68.998v-170c0 -48 -9.5 -83.5 -28.5 -106.5s-49.5 -34.5 -91.5 -34.5c-87.333 0 -131 46.333 -131 139v560c0 94.667 43.667 142 131 142c80 0 120 -46.667 120 -140v-146h-69v145c0 22 -3.66699 38.167 -11 48.5s-20.666 15.5 -39.999 15.5
c-36 0 -54 -21.333 -54 -64v-560c0 -43.333 18 -65 54 -65c18.667 0 31.834 5.33301 39.501 16s11.5 27 11.5 49v171zM103.998 860l112 161h89l-135 -161h-66z" />
    <glyph glyph-name="cacute" unicode="&#x107;" horiz-adv-x="283" 
d="M190 253h64v-138c0 -37.333 -8.83301 -67.333 -26.5 -90s-45.5 -34 -83.5 -34s-66.333 11.5 -85 34.5s-28 53.5 -28 91.5v384c0 38 9.33301 68.833 28 92.5s47 35.5 85 35.5s65.5 -11.667 82.5 -35s25.5 -54 25.5 -92v-134h-62v135c0 17.333 -3.83301 30.833 -11.5 40.5
s-19.167 14.5 -34.5 14.5s-26.833 -5 -34.5 -15s-11.5 -23.667 -11.5 -41v-385c0 -37.333 15.333 -56 46 -56s46 18.333 46 55v137zM91 656l112 161h89l-135 -161h-66z" />
    <glyph glyph-name="Cdotaccent" unicode="&#x10a;" horiz-adv-x="309" 
d="M213 302h68.998v-170c0 -48 -9.5 -83.5 -28.5 -106.5s-49.5 -34.5 -91.5 -34.5c-87.333 0 -131 46.333 -131 139v560c0 94.667 43.667 142 131 142c80 0 120 -46.667 120 -140v-146h-69v145c0 22 -3.66699 38.167 -11 48.5s-20.666 15.5 -39.999 15.5
c-36 0 -54 -21.333 -54 -64v-560c0 -43.333 18 -65 54 -65c18.667 0 31.834 5.33301 39.501 16s11.5 27 11.5 49v171zM119.998 872v125h69v-125h-69z" />
    <glyph glyph-name="cdotaccent" unicode="&#x10b;" horiz-adv-x="283" 
d="M190 253h64v-138c0 -37.333 -8.83301 -67.333 -26.5 -90s-45.5 -34 -83.5 -34s-66.333 11.5 -85 34.5s-28 53.5 -28 91.5v384c0 38 9.33301 68.833 28 92.5s47 35.5 85 35.5s65.5 -11.667 82.5 -35s25.5 -54 25.5 -92v-134h-62v135c0 17.333 -3.83301 30.833 -11.5 40.5
s-19.167 14.5 -34.5 14.5s-26.833 -5 -34.5 -15s-11.5 -23.667 -11.5 -41v-385c0 -37.333 15.333 -56 46 -56s46 18.333 46 55v137zM107 668v125h69v-125h-69z" />
    <glyph glyph-name="Ccaron" unicode="&#x10c;" horiz-adv-x="309" 
d="M213 302h68.998v-170c0 -48 -9.5 -83.5 -28.5 -106.5s-49.5 -34.5 -91.5 -34.5c-87.333 0 -131 46.333 -131 139v560c0 94.667 43.667 142 131 142c80 0 120 -46.667 120 -140v-146h-69v145c0 22 -3.66699 38.167 -11 48.5s-20.666 15.5 -39.999 15.5
c-36 0 -54 -21.333 -54 -64v-560c0 -43.333 18 -65 54 -65c18.667 0 31.834 5.33301 39.501 16s11.5 27 11.5 49v171zM113.998 860l-104 161h67l80 -123l81 123h64l-108 -161h-80z" />
    <glyph glyph-name="ccaron" unicode="&#x10d;" horiz-adv-x="283" 
d="M190 253h64v-138c0 -37.333 -8.83301 -67.333 -26.5 -90s-45.5 -34 -83.5 -34s-66.333 11.5 -85 34.5s-28 53.5 -28 91.5v384c0 38 9.33301 68.833 28 92.5s47 35.5 85 35.5s65.5 -11.667 82.5 -35s25.5 -54 25.5 -92v-134h-62v135c0 17.333 -3.83301 30.833 -11.5 40.5
s-19.167 14.5 -34.5 14.5s-26.833 -5 -34.5 -15s-11.5 -23.667 -11.5 -41v-385c0 -37.333 15.333 -56 46 -56s46 18.333 46 55v137zM101 656l-104 161h67l80 -123l81 123h64l-108 -161h-80z" />
    <glyph glyph-name="Dcaron" unicode="&#x10e;" horiz-adv-x="326" 
d="M219 681c0 20.667 -4.5 36.667 -13.5 48s-22.5 17 -40.5 17h-52v-671h52c36 0 54 21.667 54 65v541zM37 0v823h128c43.333 0 75.833 -12.5 97.5 -37.5s32.5 -59.5 32.5 -103.5v-542c0 -93.333 -43.333 -140 -130 -140h-128zM116 860l-104 161h67l80 -123l81 123h64
l-108 -161h-80z" />
    <glyph glyph-name="dcaron" unicode="&#x10f;" horiz-adv-x="375" 
d="M197 518c-5.33301 13.333 -12.833 23.501 -22.5 30.501s-20.167 10.5 -31.5 10.5c-15.333 0 -26.333 -3.83301 -33 -11.5s-10 -20.834 -10 -39.501v-390c0 -19.333 3.33301 -32.833 10 -40.5s17.667 -11.5 33 -11.5c11.333 0 21.833 3.5 31.5 10.5
s17.167 17.167 22.5 30.5v411zM207 0.000976562c-0.666992 7.33301 -1.16602 14.832 -1.49902 22.499s-0.5 15.5 -0.5 23.5c-7.33301 -16.667 -17.833 -29.667 -31.5 -39s-31.834 -14 -54.501 -14c-58.667 0 -88 38.667 -88 116v406c0 40.667 7.33301 69.834 22 87.501
s37.667 26.5 69 26.5c16 0 30.5 -3.66699 43.5 -11s23.5 -17 31.5 -29v234h68v-823h-58zM313.001 638l-0.000976562 33h6c11.333 0 17 6 17 18v31h-33v103h72v-129c0 -17.333 -4.16699 -31 -12.5 -41s-22.166 -15 -41.499 -15h-8z" />
    <glyph glyph-name="Dcroat" unicode="&#x110;" horiz-adv-x="324" 
d="M35 0l-0.000976562 381h-25v76h25v366h129c42.667 0 74.834 -12.5 96.501 -37.5s32.5 -59.5 32.5 -103.5v-542c0 -93.333 -43 -140 -129 -140h-129zM217.999 682c0 17.333 -4.16797 32.333 -12.501 45s-22.166 19 -41.499 19h-53v-289h60v-76h-60v-306h53
c36 0 54 21.667 54 65v542z" />
    <glyph glyph-name="dmacron" unicode="&#x111;" horiz-adv-x="303" 
d="M207 0c-0.666992 7.33301 -1.16602 14.832 -1.49902 22.499s-0.5 15.5 -0.5 23.5c-7.33301 -16.667 -17.833 -29.667 -31.5 -39s-31.834 -14 -54.501 -14c-58.667 0 -88 38.667 -88 116v406c0 40.667 7.33301 69.834 22 87.501s37.667 26.5 69 26.5
c16 0 30.5 -3.66699 43.5 -11s23.5 -17 31.5 -29v111h-132v59h132v64h68v-64h30v-59h-30v-700h-58zM197.001 517.999c-5.33301 13.333 -12.833 23.501 -22.5 30.501s-20.167 10.5 -31.5 10.5c-15.333 0 -26.333 -3.83301 -33 -11.5s-10 -20.834 -10 -39.501v-390
c0 -19.333 3.33301 -32.833 10 -40.5s17.667 -11.5 33 -11.5c11.333 0 21.833 3.5 31.5 10.5s17.167 17.167 22.5 30.5v411z" />
    <glyph glyph-name="Emacron" unicode="&#x112;" 
d="M37 0v823h218v-77h-142v-289h100v-76h-100v-306h147v-75h-223zM26 904v59h230v-59h-230z" />
    <glyph glyph-name="emacron" unicode="&#x113;" 
d="M184 502c0 36.667 -15.333 55 -46 55c-28.667 0 -43 -18.333 -43 -55v-149h89v149zM184 252h65v-136c0 -83.333 -37 -125 -111 -125c-71.333 0 -107 41.667 -107 125v386c0 42 9.16699 73.667 27.5 95s44.833 32 79.5 32c74 0 111 -42.333 111 -127v-199h-154v-187
c0 -36.667 14.333 -55 43 -55c30.667 0 46 18.333 46 55v136zM26 700v59h230v-59h-230z" />
    <glyph glyph-name="Ebreve" unicode="&#x114;" 
d="M37 0v823h218v-77h-142v-289h100v-76h-100v-306h147v-75h-223zM275 1015c0 -30 -2.66992 -54.667 -8.00293 -74s-13.5 -34.833 -24.5 -46.5s-24.833 -19.667 -41.5 -24s-36 -6.5 -58 -6.5c-26 0 -47.667 2.16699 -65 6.5s-31.166 12.333 -41.499 24
s-17.833 27.167 -22.5 46.5s-7 44 -7 74h61c0 -24 1.83301 -43.333 5.5 -58s8.5 -25.834 14.5 -33.501s13.5 -12.667 22.5 -15s19.167 -3.5 30.5 -3.5c10 0 19.333 1.16699 28 3.5s16.334 7.33301 23.001 15s11.834 18.834 15.501 33.501s5.5 34 5.5 58h62z" />
    <glyph glyph-name="ebreve" unicode="&#x115;" 
d="M184 502c0 36.667 -15.333 55 -46 55c-28.667 0 -43 -18.333 -43 -55v-149h89v149zM184 252h65v-136c0 -83.333 -37 -125 -111 -125c-71.333 0 -107 41.667 -107 125v386c0 42 9.16699 73.667 27.5 95s44.833 32 79.5 32c74 0 111 -42.333 111 -127v-199h-154v-187
c0 -36.667 14.333 -55 43 -55c30.667 0 46 18.333 46 55v136zM275 811c0 -30 -2.66992 -54.667 -8.00293 -74s-13.5 -34.833 -24.5 -46.5s-24.833 -19.667 -41.5 -24s-36 -6.5 -58 -6.5c-26 0 -47.667 2.16699 -65 6.5s-31.166 12.333 -41.499 24s-17.833 27.167 -22.5 46.5
s-7 44 -7 74h61c0 -24 1.83301 -43.333 5.5 -58s8.5 -25.834 14.5 -33.501s13.5 -12.667 22.5 -15s19.167 -3.5 30.5 -3.5c10 0 19.333 1.16699 28 3.5s16.334 7.33301 23.001 15s11.834 18.834 15.501 33.501s5.5 34 5.5 58h62z" />
    <glyph glyph-name="Edotaccent" unicode="&#x116;" 
d="M37 0v823h218v-77h-142v-289h100v-76h-100v-306h147v-75h-223zM115 872v125h69v-125h-69z" />
    <glyph glyph-name="edotaccent" unicode="&#x117;" 
d="M184 502c0 36.667 -15.333 55 -46 55c-28.667 0 -43 -18.333 -43 -55v-149h89v149zM184 252h65v-136c0 -83.333 -37 -125 -111 -125c-71.333 0 -107 41.667 -107 125v386c0 42 9.16699 73.667 27.5 95s44.833 32 79.5 32c74 0 111 -42.333 111 -127v-199h-154v-187
c0 -36.667 14.333 -55 43 -55c30.667 0 46 18.333 46 55v136zM105 668v125h69v-125h-69z" />
    <glyph glyph-name="Eogonek" unicode="&#x118;" 
d="M289 -49c0 -32 -8 -56.6709 -24 -74.0039s-45 -26 -87 -26c-24 0 -43.833 5.83301 -59.5 17.5s-23.5 28.5 -23.5 50.5c0 20.667 9 38.334 27 53.001s44.333 24 79 28h-164v823h218v-77h-142v-289h100v-76h-100v-306h147v-75
c-36.667 -5.33301 -65.167 -13.666 -85.5 -24.999s-30.5 -25.666 -30.5 -42.999c0 -7.33301 2.83301 -14.666 8.5 -21.999s15.5 -11 29.5 -11c19.333 0 32.333 4.83301 39 14.5s10 22.167 10 37.5v11h58v-11z" />
    <glyph glyph-name="eogonek" unicode="&#x119;" 
d="M248 -49c0 -32 -8 -56.666 -24 -73.999s-45 -26 -87 -26c-24 0 -43.833 5.83301 -59.5 17.5s-23.5 28.5 -23.5 50.5c0 34.667 22 59 66 73c-59.333 7.33301 -89 48.666 -89 123.999v386c0 42 9.16699 73.667 27.5 95s44.833 32 79.5 32c74 0 111 -42.333 111 -127v-199
h-154v-187c0 -36.667 14.333 -55 43 -55c30.667 0 46 18.333 46 55v136h65v-136c0 -36 -7 -63.5 -21 -82.5s-34.333 -32.167 -61 -39.5c-17.333 -5.33301 -32.333 -13.333 -45 -24s-19 -23.334 -19 -38.001c0 -7.33301 2.83301 -14.666 8.5 -21.999s15.5 -11 29.5 -11
c19.333 0 32.333 4.83301 39 14.5s10 22.167 10 37.5v11h58v-11zM184 502.001c0 36.667 -15.333 55 -46 55c-28.667 0 -43 -18.333 -43 -55v-149h89v149z" />
    <glyph glyph-name="Ecaron" unicode="&#x11a;" 
d="M37 0v823h218v-77h-142v-289h100v-76h-100v-306h147v-75h-223zM106 860l-104 161h67l80 -123l81 123h64l-108 -161h-80z" />
    <glyph glyph-name="ecaron" unicode="&#x11b;" 
d="M184 502c0 36.667 -15.333 55 -46 55c-28.667 0 -43 -18.333 -43 -55v-149h89v149zM184 252h65v-136c0 -83.333 -37 -125 -111 -125c-71.333 0 -107 41.667 -107 125v386c0 42 9.16699 73.667 27.5 95s44.833 32 79.5 32c74 0 111 -42.333 111 -127v-199h-154v-187
c0 -36.667 14.333 -55 43 -55c30.667 0 46 18.333 46 55v136zM99 656l-104 161h67l80 -123l81 123h64l-108 -161h-80z" />
    <glyph glyph-name="Gbreve" unicode="&#x11e;" horiz-adv-x="322" 
d="M280 -5l-25 45c-8 -16 -21 -28.167 -39 -36.5s-38.333 -12.5 -61 -12.5c-18 0 -34.5 2.33301 -49.5 7s-28 12.5 -39 23.5s-19.667 25.5 -26 43.5s-9.5 40 -9.5 66v560c0 45.333 10.833 80.166 32.5 104.499s54.167 36.5 97.5 36.5c44 0 75.833 -12.167 95.5 -36.5
s29.5 -59.166 29.5 -104.499v-145h-68v145c0 21.333 -4.33301 37.333 -13 48s-23.334 16 -44.001 16c-19.333 0 -33.166 -5.33301 -41.499 -16s-12.5 -26.667 -12.5 -48v-560c0 -21.333 5 -37.5 15 -48.5s22.667 -16.5 38 -16.5c36 0 55.667 19.667 59 59v187h-63v72h136
v-389h-12zM296 1015c0 -30 -2.66992 -54.667 -8.00293 -74s-13.5 -34.833 -24.5 -46.5s-24.833 -19.667 -41.5 -24s-36 -6.5 -58 -6.5c-26 0 -47.667 2.16699 -65 6.5s-31.166 12.333 -41.499 24s-17.833 27.167 -22.5 46.5s-7 44 -7 74h61c0 -24 1.83301 -43.333 5.5 -58
s8.5 -25.834 14.5 -33.501s13.5 -12.667 22.5 -15s19.167 -3.5 30.5 -3.5c10 0 19.333 1.16699 28 3.5s16.334 7.33301 23.001 15s11.834 18.834 15.501 33.501s5.5 34 5.5 58h62z" />
    <glyph glyph-name="gbreve" unicode="&#x11f;" horiz-adv-x="303" 
d="M199 68c-7.33301 -12 -17.833 -21.501 -31.5 -28.501s-29.167 -10.5 -46.5 -10.5c-31.333 0 -54.166 8.66699 -68.499 26s-21.5 46.333 -21.5 87v367c0 40 7.5 69.333 22.5 88s36.833 28 65.5 28c21.333 0 38.833 -4.5 52.5 -13.5s24.834 -22.167 33.501 -39.5
c0 8 0.166992 16 0.5 24s0.833008 15.667 1.5 23h58v-651c0 -38 -9.16699 -67 -27.5 -87s-46.833 -30 -85.5 -30c-21.333 0 -39.333 2.66699 -54 8s-26.334 13 -35.001 23s-14.834 22.167 -18.501 36.5s-5.5 30.833 -5.5 49.5v25h62v-28c0 -17.333 4 -30.666 12 -39.999
s20.667 -14 38 -14c32 0 48 18 48 54v103zM199 510.999c-5.33301 13.333 -13 23.5 -23 30.5s-21 10.5 -33 10.5c-17.333 0 -29 -4.16699 -35 -12.5s-9 -19.833 -9 -34.5v-361c0 -17.333 3.16699 -29.833 9.5 -37.5s17.833 -11.5 34.5 -11.5c12 0 23 3.33301 33 10
s17.667 16.667 23 30v376zM287 810.999c0 -30 -2.66992 -54.667 -8.00293 -74s-13.5 -34.833 -24.5 -46.5s-24.833 -19.667 -41.5 -24s-36 -6.5 -58 -6.5c-26 0 -47.667 2.16699 -65 6.5s-31.166 12.333 -41.499 24s-17.833 27.167 -22.5 46.5s-7 44 -7 74h61
c0 -24 1.83301 -43.333 5.5 -58s8.5 -25.834 14.5 -33.501s13.5 -12.667 22.5 -15s19.167 -3.5 30.5 -3.5c10 0 19.333 1.16699 28 3.5s16.334 7.33301 23.001 15s11.834 18.834 15.501 33.501s5.5 34 5.5 58h62z" />
    <glyph glyph-name="Gdotaccent" unicode="&#x120;" horiz-adv-x="322" 
d="M280 -5l-25 45c-8 -16 -21 -28.167 -39 -36.5s-38.333 -12.5 -61 -12.5c-18 0 -34.5 2.33301 -49.5 7s-28 12.5 -39 23.5s-19.667 25.5 -26 43.5s-9.5 40 -9.5 66v560c0 45.333 10.833 80.166 32.5 104.499s54.167 36.5 97.5 36.5c44 0 75.833 -12.167 95.5 -36.5
s29.5 -59.166 29.5 -104.499v-145h-68v145c0 21.333 -4.33301 37.333 -13 48s-23.334 16 -44.001 16c-19.333 0 -33.166 -5.33301 -41.499 -16s-12.5 -26.667 -12.5 -48v-560c0 -21.333 5 -37.5 15 -48.5s22.667 -16.5 38 -16.5c36 0 55.667 19.667 59 59v187h-63v72h136
v-389h-12zM126 872v125h69v-125h-69z" />
    <glyph glyph-name="gdotaccent" unicode="&#x121;" horiz-adv-x="303" 
d="M199 68c-7.33301 -12 -17.833 -21.501 -31.5 -28.501s-29.167 -10.5 -46.5 -10.5c-31.333 0 -54.166 8.66699 -68.499 26s-21.5 46.333 -21.5 87v367c0 40 7.5 69.333 22.5 88s36.833 28 65.5 28c21.333 0 38.833 -4.5 52.5 -13.5s24.834 -22.167 33.501 -39.5
c0 8 0.166992 16 0.5 24s0.833008 15.667 1.5 23h58v-651c0 -38 -9.16699 -67 -27.5 -87s-46.833 -30 -85.5 -30c-21.333 0 -39.333 2.66699 -54 8s-26.334 13 -35.001 23s-14.834 22.167 -18.501 36.5s-5.5 30.833 -5.5 49.5v25h62v-28c0 -17.333 4 -30.666 12 -39.999
s20.667 -14 38 -14c32 0 48 18 48 54v103zM199 510.999c-5.33301 13.333 -13 23.5 -23 30.5s-21 10.5 -33 10.5c-17.333 0 -29 -4.16699 -35 -12.5s-9 -19.833 -9 -34.5v-361c0 -17.333 3.16699 -29.833 9.5 -37.5s17.833 -11.5 34.5 -11.5c12 0 23 3.33301 33 10
s17.667 16.667 23 30v376zM117 667.999v125h69v-125h-69z" />
    <glyph glyph-name="Gcommaaccent" unicode="&#x122;" horiz-adv-x="322" 
d="M280 -5l-25 45c-8 -16 -21 -28.167 -39 -36.5s-38.333 -12.5 -61 -12.5c-18 0 -34.5 2.33301 -49.5 7s-28 12.5 -39 23.5s-19.667 25.5 -26 43.5s-9.5 40 -9.5 66v560c0 45.333 10.833 80.166 32.5 104.499s54.167 36.5 97.5 36.5c44 0 75.833 -12.167 95.5 -36.5
s29.5 -59.166 29.5 -104.499v-145h-68v145c0 21.333 -4.33301 37.333 -13 48s-23.334 16 -44.001 16c-19.333 0 -33.166 -5.33301 -41.499 -16s-12.5 -26.667 -12.5 -48v-560c0 -21.333 5 -37.5 15 -48.5s22.667 -16.5 38 -16.5c36 0 55.667 19.667 59 59v187h-63v72h136
v-389h-12zM140 -149v25.001h8c7.33301 0 11 4 11 12v20h-27v72h58v-90c0 -12.667 -3 -22.334 -9 -29.001s-16 -10 -30 -10h-11z" />
    <glyph glyph-name="gcommaaccent" unicode="&#x123;" horiz-adv-x="303" 
d="M199 68c-7.33301 -12 -17.833 -21.501 -31.5 -28.501s-29.167 -10.5 -46.5 -10.5c-31.333 0 -54.166 8.66699 -68.499 26s-21.5 46.333 -21.5 87v367c0 40 7.5 69.333 22.5 88s36.833 28 65.5 28c21.333 0 38.833 -4.5 52.5 -13.5s24.834 -22.167 33.501 -39.5
c0 8 0.166992 16 0.5 24s0.833008 15.667 1.5 23h58v-651c0 -38 -9.16699 -67 -27.5 -87s-46.833 -30 -85.5 -30c-21.333 0 -39.333 2.66699 -54 8s-26.334 13 -35.001 23s-14.834 22.167 -18.501 36.5s-5.5 30.833 -5.5 49.5v25h62v-28c0 -17.333 4 -30.666 12 -39.999
s20.667 -14 38 -14c32 0 48 18 48 54v103zM199 510.999c-5.33301 13.333 -13 23.5 -23 30.5s-21 10.5 -33 10.5c-17.333 0 -29 -4.16699 -35 -12.5s-9 -19.833 -9 -34.5v-361c0 -17.333 3.16699 -29.833 9.5 -37.5s17.833 -11.5 34.5 -11.5c12 0 23 3.33301 33 10
s17.667 16.667 23 30v376zM164.003 783.99v-24.999h-8c-7.33301 0 -10.999 -4 -10.999 -11.999v-19.999h26.998v-71.9951h-57.9961v89.9941c0 12.666 3 22.332 8.99902 28.998c6 6.66699 16 10 29.999 10h10.999z" />
    <glyph glyph-name="Hbar" unicode="&#x126;" horiz-adv-x="332" 
d="M219 0v381h-106v-381h-76v823h76v-158h106v158h76v-823h-76zM219 456v150h-106v-150h106z" />
    <glyph glyph-name="hbar" unicode="&#x127;" horiz-adv-x="302" 
d="M106 700v-115.999c9.33301 13.333 21 24.166 35 32.499s29.667 12.5 47 12.5c28 0 48.333 -9 61 -27s19 -47 19 -87v-515h-69v511c0 18 -3 30.833 -9 38.5s-16.333 11.5 -31 11.5c-10 0 -20 -3 -30 -9s-17.667 -15.667 -23 -29v-523h-69v700h-32v59h32v64h69v-64h129v-59
h-129z" />
    <glyph glyph-name="uni012A" unicode="&#x12a;" horiz-adv-x="154" 
d="M39 0v823h76v-823h-76zM-37 904v59h230v-59h-230z" />
    <glyph glyph-name="imacron" unicode="&#x12b;" horiz-adv-x="188" 
d="M59 0v619h69v-619h-69zM-20 700v59h230v-59h-230z" />
    <glyph glyph-name="Ibreve" unicode="&#x12c;" horiz-adv-x="154" 
d="M39 0v823h76v-823h-76zM212 1015c0 -30 -2.66992 -54.667 -8.00293 -74s-13.5 -34.833 -24.5 -46.5s-24.833 -19.667 -41.5 -24s-36 -6.5 -58 -6.5c-26 0 -47.667 2.16699 -65 6.5s-31.166 12.333 -41.499 24s-17.833 27.167 -22.5 46.5s-7 44 -7 74h61
c0 -24 1.83301 -43.333 5.5 -58s8.5 -25.834 14.5 -33.501s13.5 -12.667 22.5 -15s19.167 -3.5 30.5 -3.5c10 0 19.333 1.16699 28 3.5s16.334 7.33301 23.001 15s11.834 18.834 15.501 33.501s5.5 34 5.5 58h62z" />
    <glyph glyph-name="ibreve" unicode="&#x12d;" horiz-adv-x="209" 
d="M70 0v619h69v-619h-69zM240 811c0 -30 -2.66992 -54.667 -8.00293 -74s-13.5 -34.833 -24.5 -46.5s-24.833 -19.667 -41.5 -24s-36 -6.5 -58 -6.5c-26 0 -47.667 2.16699 -65 6.5s-31.166 12.333 -41.499 24s-17.833 27.167 -22.5 46.5s-7 44 -7 74h61
c0 -24 1.83301 -43.333 5.5 -58s8.5 -25.834 14.5 -33.501s13.5 -12.667 22.5 -15s19.167 -3.5 30.5 -3.5c10 0 19.333 1.16699 28 3.5s16.334 7.33301 23.001 15s11.834 18.834 15.501 33.501s5.5 34 5.5 58h62z" />
    <glyph glyph-name="Iogonek" unicode="&#x12e;" horiz-adv-x="154" 
d="M144 -49c0 -32 -8 -56.6699 -24 -74.0029s-45 -26 -87 -26c-24 0 -43.833 5.83301 -59.5 17.5s-23.5 28.5 -23.5 50.5c0 19.333 7.5 36 22.5 50s37.167 23.667 66.5 29v825h76v-823c-36.667 -5.33301 -65.167 -13.666 -85.5 -24.999s-30.5 -25.666 -30.5 -42.999
c0 -7.33301 2.83301 -14.666 8.5 -21.999s15.5 -11 29.5 -11c19.333 0 32.333 4.83301 39 14.5s10 22.167 10 37.5v11h58v-11z" />
    <glyph glyph-name="iogonek" unicode="&#x12f;" horiz-adv-x="147" 
d="M137 -49c0 -32 -7.99902 -56.668 -23.999 -74.001s-45 -26 -87 -26c-24 0 -43.833 5.83301 -59.5 17.5s-23.5 28.5 -23.5 50.5c0 19.333 8.16699 36.166 24.5 50.499s40.166 24.166 71.499 29.499v620h69v-619c-36.667 -5.33301 -65.167 -13.666 -85.5 -24.999
s-30.5 -25.666 -30.5 -42.999c0 -7.33301 2.83301 -14.666 8.5 -21.999s15.5 -11 29.5 -11c19.333 0 32.333 4.83301 39 14.5s10 22.167 10 37.5v11h58v-11zM39.001 697.999v125h69v-125h-69z" />
    <glyph glyph-name="Idotaccent" unicode="&#x130;" horiz-adv-x="154" 
d="M39 0v823h76v-823h-76zM42 872v125h69v-125h-69z" />
    <glyph glyph-name="dotlessi" unicode="&#x131;" horiz-adv-x="147" 
d="M39 0v619h69v-619h-69z" />
    <glyph glyph-name="IJ" unicode="&#x132;" horiz-adv-x="371" 
d="M39 0v823h76v-823h-76zM164 77c12 -4.66699 28 -7 48 -7c32.667 0 49 21.333 49 64v689h76v-689c0 -48.667 -10.667 -84.167 -32 -106.5s-52.333 -33.5 -93 -33.5c-20.667 0 -36.667 2.33301 -48 7v76z" />
    <glyph glyph-name="ij" unicode="&#x133;" horiz-adv-x="310" 
d="M39 698v125h69v-125h-69zM39 0v619h69v-619h-69zM115 -72c5.33301 -1.33301 11.167 -2.33301 17.5 -3s12.5 -1 18.5 -1c33.333 0 50 21 50 63v632h69v-632c0 -46 -9.83301 -79.333 -29.5 -100s-49.5 -31 -89.5 -31c-7.33301 0 -13.833 0.333008 -19.5 1
s-11.167 1.66699 -16.5 3v68zM201.001 698v125h69v-125h-69z" />
    <glyph glyph-name="Kcommaaccent" unicode="&#x136;" horiz-adv-x="349" 
d="M257 0l-144 405v-405h-76v823h76v-355l139 355h82l-156 -375l166 -448h-87zM163 -149v25.001h8c7.33301 0 11 4 11 12v20h-27v72h58v-90c0 -12.667 -3 -22.334 -9 -29.001s-16 -10 -30 -10h-11z" />
    <glyph glyph-name="kcommaaccent" unicode="&#x137;" horiz-adv-x="300" 
d="M216 0l-112 318v-318h-67v823h67v-471l112 267h73l-121 -274l124 -345h-76zM139 -149v25.001h8c7.33301 0 11 4 11 12v20h-27v72h58v-90c0 -12.667 -3 -22.334 -9 -29.001s-16 -10 -30 -10h-11z" />
    <glyph glyph-name="Lacute" unicode="&#x139;" horiz-adv-x="270" 
d="M37 0v823h76v-748h147v-75h-223zM29 860l112 161h89l-135 -161h-66z" />
    <glyph glyph-name="lacute" unicode="&#x13a;" horiz-adv-x="143" 
d="M37 0v823h69v-823h-69zM22 860l112 161h89l-135 -161h-66z" />
    <glyph glyph-name="Lcommaaccent" unicode="&#x13b;" horiz-adv-x="270" 
d="M37 0v823h76v-748h147v-75h-223zM129 -149v25.001h8c7.33301 0 11 4 11 12v20h-27v72h58v-90c0 -12.667 -3 -22.334 -9 -29.001s-16 -10 -30 -10h-11z" />
    <glyph glyph-name="lcommaaccent" unicode="&#x13c;" horiz-adv-x="143" 
d="M37 0v823h69v-823h-69zM53 -149v25.001h8c7.33301 0 11 4 11 12v20h-27v72h58v-90c0 -12.667 -3 -22.334 -9 -29.001s-16 -10 -30 -10h-11z" />
    <glyph glyph-name="Lcaron" unicode="&#x13d;" horiz-adv-x="270" 
d="M37 0v823h76v-748h147v-75h-223zM202 638l-0.000976562 33h6c11.333 0 17 6 17 18v31h-33v103h72v-129c0 -17.333 -4.16699 -31 -12.5 -41s-22.166 -15 -41.499 -15h-8z" />
    <glyph glyph-name="lcaron" unicode="&#x13e;" horiz-adv-x="215" 
d="M37 0v823h69v-823h-69zM153 638l-0.000976562 33h6c11.333 0 17 6 17 18v31h-33v103h72v-129c0 -17.333 -4.16699 -31 -12.5 -41s-22.166 -15 -41.499 -15h-8z" />
    <glyph glyph-name="Ldot" unicode="&#x13f;" horiz-adv-x="270" 
d="M37 0v823h76v-748h147v-75h-223zM151 329v125h69v-125h-69z" />
    <glyph glyph-name="ldot" unicode="&#x140;" horiz-adv-x="212" 
d="M37 0v823h69v-823h-69zM143 317v125h69v-125h-69z" />
    <glyph glyph-name="Lslash" unicode="&#x141;" horiz-adv-x="272" 
d="M38 0v497l-39 -24l-26 43l65 39v268h76v-223l63 39l25 -42l-88 -54v-468h147v-75h-223z" />
    <glyph glyph-name="lslash" unicode="&#x142;" horiz-adv-x="203" 
d="M68 0v513l-59 -35l-25 41l84 50v254h69v-213l57 35l26 -41l-83 -51v-553h-69z" />
    <glyph glyph-name="Nacute" unicode="&#x143;" horiz-adv-x="353" 
d="M242 0l-142 600.999c0.666992 -61.333 1 -122.166 1 -182.499v-182.5v-236h-66v823h91l126 -603c-0.666992 56.667 -1 112.5 -1 167.5v165.5v270h67v-823h-76zM126 859.999l112 161h89l-135 -161h-66z" />
    <glyph glyph-name="nacute" unicode="&#x144;" horiz-adv-x="302" 
d="M199 0l0.00195312 511c0 18 -3 30.833 -9 38.5s-16.333 11.5 -31 11.5c-10 0 -20 -3 -30 -9s-17.667 -15.667 -23 -29v-523h-69v619h58c2 -15.333 3 -31 3 -47c9.33301 17.333 21.666 31.166 36.999 41.499s32.666 15.5 51.999 15.5c28 0 48.5 -9.16699 61.5 -27.5
s19.5 -47.166 19.5 -86.499v-515h-69zM100.002 656l112 161h89l-135 -161h-66z" />
    <glyph glyph-name="Ncommaaccent" unicode="&#x145;" horiz-adv-x="353" 
d="M242 0l-142 600.999c0.666992 -61.333 1 -122.166 1 -182.499v-182.5v-236h-66v823h91l126 -603c-0.666992 56.667 -1 112.5 -1 167.5v165.5v270h67v-823h-76zM155 -149.001v25.001h8c7.33301 0 11 4 11 12v20h-27v72h58v-90c0 -12.667 -3 -22.334 -9 -29.001
s-16 -10 -30 -10h-11z" />
    <glyph glyph-name="ncommaaccent" unicode="&#x146;" horiz-adv-x="302" 
d="M199 0l0.00195312 511c0 18 -3 30.833 -9 38.5s-16.333 11.5 -31 11.5c-10 0 -20 -3 -30 -9s-17.667 -15.667 -23 -29v-523h-69v619h58c2 -15.333 3 -31 3 -47c9.33301 17.333 21.666 31.166 36.999 41.499s32.666 15.5 51.999 15.5c28 0 48.5 -9.16699 61.5 -27.5
s19.5 -47.166 19.5 -86.499v-515h-69zM130.002 -149v25.001h8c7.33301 0 11 4 11 12v20h-27v72h58v-90c0 -12.667 -3 -22.334 -9 -29.001s-16 -10 -30 -10h-11z" />
    <glyph glyph-name="Ncaron" unicode="&#x147;" horiz-adv-x="353" 
d="M242 0l-142 600.999c0.666992 -61.333 1 -122.166 1 -182.499v-182.5v-236h-66v823h91l126 -603c-0.666992 56.667 -1 112.5 -1 167.5v165.5v270h67v-823h-76zM136 859.999l-104 161h67l80 -123l81 123h64l-108 -161h-80z" />
    <glyph glyph-name="ncaron" unicode="&#x148;" horiz-adv-x="302" 
d="M199 0l0.00195312 511c0 18 -3 30.833 -9 38.5s-16.333 11.5 -31 11.5c-10 0 -20 -3 -30 -9s-17.667 -15.667 -23 -29v-523h-69v619h58c2 -15.333 3 -31 3 -47c9.33301 17.333 21.666 31.166 36.999 41.499s32.666 15.5 51.999 15.5c28 0 48.5 -9.16699 61.5 -27.5
s19.5 -47.166 19.5 -86.499v-515h-69zM110.002 656l-104 161h67l80 -123l81 123h64l-108 -161h-80z" />
    <glyph glyph-name="Eng" unicode="&#x14a;" horiz-adv-x="353" 
d="M163 -77c5.33301 -1.33301 11.167 -2.33301 17.5 -3s12.5 -1 18.5 -1c14 0 25.5 3.83301 34.5 11.5s14.5 19.167 16.5 34.5l-150 636c0 -30.667 0.166992 -62.334 0.5 -95.001s0.5 -71.667 0.5 -117v-161.5v-227.5h-66v823h91l126 -603c0 28 -0.166992 57.333 -0.5 88
s-0.5 68.334 -0.5 113.001v163v239h67v-841c0 -46 -9.83301 -79.333 -29.5 -100s-49.5 -31 -89.5 -31c-7.33301 0 -13.833 0.333008 -19.5 1s-11.167 1.66699 -16.5 3v68z" />
    <glyph glyph-name="eng" unicode="&#x14b;" horiz-adv-x="302" 
d="M113 -77c5.33301 -1.33301 11.1689 -2.33301 17.502 -3s12.5 -1 18.5 -1c33.333 0 50 21 50 63v529c0 18 -3 30.833 -9 38.5s-16.333 11.5 -31 11.5c-10 0 -20 -3 -30 -9s-17.667 -15.667 -23 -29v-523h-69v619h58c2 -15.333 3 -31 3 -47
c9.33301 17.333 21.666 31.166 36.999 41.499s32.666 15.5 51.999 15.5c28 0 48.5 -9.16699 61.5 -27.5s19.5 -47.166 19.5 -86.499v-533c0 -46 -9.83301 -79.333 -29.5 -100s-49.5 -31 -89.5 -31c-7.33301 0 -13.833 0.333008 -19.5 1s-11.167 1.66699 -16.5 3v68z" />
    <glyph glyph-name="Omacron" unicode="&#x14c;" horiz-adv-x="321" 
d="M31 692c0 46 10.667 80.833 32 104.5s53.666 35.5 96.999 35.5c44 0 76.667 -11.833 98 -35.5s32 -58.5 32 -104.5v-561c0 -46 -10.667 -80.833 -32 -104.5s-54 -35.5 -98 -35.5c-43.333 0 -75.666 11.833 -96.999 35.5s-32 58.5 -32 104.5v561zM214 692
c0 42 -18 63 -54 63c-35.333 0 -53 -21 -53 -63v-561c0 -43.333 17.667 -65 53 -65c36 0 54 21.667 54 65v561zM45 904v59h230v-59h-230z" />
    <glyph glyph-name="omacron" unicode="&#x14d;" horiz-adv-x="290" 
d="M31 505c0 40 9.33301 70.667 28 92s47.334 32 86.001 32c38 0 66.5 -10.667 85.5 -32s28.5 -52 28.5 -92v-391c0 -40 -9.5 -70.5 -28.5 -91.5s-47.5 -31.5 -85.5 -31.5c-38.667 0 -67.334 10.5 -86.001 31.5s-28 51.5 -28 91.5v391zM192 503
c0 17.333 -3.16699 30.833 -9.5 40.5s-18.833 14.5 -37.5 14.5s-31.167 -4.83301 -37.5 -14.5s-9.5 -23.167 -9.5 -40.5v-389c0 -17.333 3.16699 -30.5 9.5 -39.5s18.833 -13.5 37.5 -13.5s31.167 4.66699 37.5 14s9.5 23 9.5 41v387zM31 700v59h230v-59h-230z" />
    <glyph glyph-name="Obreve" unicode="&#x14e;" horiz-adv-x="321" 
d="M31 692c0 46 10.667 80.833 32 104.5s53.666 35.5 96.999 35.5c44 0 76.667 -11.833 98 -35.5s32 -58.5 32 -104.5v-561c0 -46 -10.667 -80.833 -32 -104.5s-54 -35.5 -98 -35.5c-43.333 0 -75.666 11.833 -96.999 35.5s-32 58.5 -32 104.5v561zM214 692
c0 42 -18 63 -54 63c-35.333 0 -53 -21 -53 -63v-561c0 -43.333 17.667 -65 53 -65c36 0 54 21.667 54 65v561zM296 1015c0 -30 -2.66992 -54.667 -8.00293 -74s-13.5 -34.833 -24.5 -46.5s-24.833 -19.667 -41.5 -24s-36 -6.5 -58 -6.5c-26 0 -47.667 2.16699 -65 6.5
s-31.166 12.333 -41.499 24s-17.833 27.167 -22.5 46.5s-7 44 -7 74h61c0 -24 1.83301 -43.333 5.5 -58s8.5 -25.834 14.5 -33.501s13.5 -12.667 22.5 -15s19.167 -3.5 30.5 -3.5c10 0 19.333 1.16699 28 3.5s16.334 7.33301 23.001 15s11.834 18.834 15.501 33.501
s5.5 34 5.5 58h62z" />
    <glyph glyph-name="obreve" unicode="&#x14f;" horiz-adv-x="290" 
d="M31 505c0 40 9.33301 70.667 28 92s47.334 32 86.001 32c38 0 66.5 -10.667 85.5 -32s28.5 -52 28.5 -92v-391c0 -40 -9.5 -70.5 -28.5 -91.5s-47.5 -31.5 -85.5 -31.5c-38.667 0 -67.334 10.5 -86.001 31.5s-28 51.5 -28 91.5v391zM192 503
c0 17.333 -3.16699 30.833 -9.5 40.5s-18.833 14.5 -37.5 14.5s-31.167 -4.83301 -37.5 -14.5s-9.5 -23.167 -9.5 -40.5v-389c0 -17.333 3.16699 -30.5 9.5 -39.5s18.833 -13.5 37.5 -13.5s31.167 4.66699 37.5 14s9.5 23 9.5 41v387zM280 811
c0 -30 -2.66992 -54.667 -8.00293 -74s-13.5 -34.833 -24.5 -46.5s-24.833 -19.667 -41.5 -24s-36 -6.5 -58 -6.5c-26 0 -47.667 2.16699 -65 6.5s-31.166 12.333 -41.499 24s-17.833 27.167 -22.5 46.5s-7 44 -7 74h61c0 -24 1.83301 -43.333 5.5 -58
s8.5 -25.834 14.5 -33.501s13.5 -12.667 22.5 -15s19.167 -3.5 30.5 -3.5c10 0 19.333 1.16699 28 3.5s16.334 7.33301 23.001 15s11.834 18.834 15.501 33.501s5.5 34 5.5 58h62z" />
    <glyph glyph-name="Ohungarumlaut" unicode="&#x150;" horiz-adv-x="321" 
d="M31 692c0 46 10.667 80.833 32 104.5s53.666 35.5 96.999 35.5c44 0 76.667 -11.833 98 -35.5s32 -58.5 32 -104.5v-561c0 -46 -10.667 -80.833 -32 -104.5s-54 -35.5 -98 -35.5c-43.333 0 -75.666 11.833 -96.999 35.5s-32 58.5 -32 104.5v561zM214 692
c0 42 -18 63 -54 63c-35.333 0 -53 -21 -53 -63v-561c0 -43.333 17.667 -65 53 -65c36 0 54 21.667 54 65v561zM192 860l112 161h90l-135 -161h-67zM30 860l112 161h89l-135 -161h-66z" />
    <glyph glyph-name="ohungarumlaut" unicode="&#x151;" horiz-adv-x="290" 
d="M31 505c0 40 9.33301 70.667 28 92s47.334 32 86.001 32c38 0 66.5 -10.667 85.5 -32s28.5 -52 28.5 -92v-391c0 -40 -9.5 -70.5 -28.5 -91.5s-47.5 -31.5 -85.5 -31.5c-38.667 0 -67.334 10.5 -86.001 31.5s-28 51.5 -28 91.5v391zM192 503
c0 17.333 -3.16699 30.833 -9.5 40.5s-18.833 14.5 -37.5 14.5s-31.167 -4.83301 -37.5 -14.5s-9.5 -23.167 -9.5 -40.5v-389c0 -17.333 3.16699 -30.5 9.5 -39.5s18.833 -13.5 37.5 -13.5s31.167 4.66699 37.5 14s9.5 23 9.5 41v387zM176 656l112 161h90l-135 -161h-67z
M14 656l112 161h89l-135 -161h-66z" />
    <glyph glyph-name="OE" unicode="&#x152;" horiz-adv-x="437" 
d="M215 0c-15.333 -6 -33.666 -9 -54.999 -9c-43.333 0 -75.666 11.833 -96.999 35.5s-32 58.5 -32 104.5v561c0 46 10.667 80.833 32 104.5s53.666 35.5 96.999 35.5c21.333 0 39.666 -3 54.999 -9h197v-77h-142v-289h100v-76h-100v-306h147v-75h-202zM194 750
c-4.66699 2 -9.83203 3.33301 -15.499 4s-11.834 1 -18.501 1c-35.333 0 -53 -21 -53 -63v-561c0 -43.333 17.667 -65 53 -65c12.667 0 24 1.66699 34 5v679z" />
    <glyph glyph-name="oe" unicode="&#x153;" horiz-adv-x="444" 
d="M348 252h65v-136c0 -83.333 -37 -125 -111 -125c-33.333 0 -59 9.33301 -77 28c-18 -18.667 -44.667 -28 -80 -28c-38.667 0 -67.334 10.5 -86.001 31.5s-28 51.5 -28 91.5v391c0 40 9.33301 70.667 28 92s47.334 32 86.001 32c35.333 0 62.333 -10.333 81 -31
c18.667 20.667 44 31 76 31c74 0 111 -42.333 111 -127v-199h-154v-187c0 -36.667 14.333 -55 43 -55c30.667 0 46 18.333 46 55v136zM192 503c0 17.333 -3.16699 30.833 -9.5 40.5s-18.833 14.5 -37.5 14.5s-31.167 -4.83301 -37.5 -14.5s-9.5 -23.167 -9.5 -40.5v-389
c0 -17.333 3.16699 -30.5 9.5 -39.5s18.833 -13.5 37.5 -13.5s31.167 4.66699 37.5 14s9.5 23 9.5 41v387zM348 502c0 36.667 -15.333 55 -46 55c-28.667 0 -43 -18.333 -43 -55v-149h89v149z" />
    <glyph glyph-name="Racute" unicode="&#x154;" horiz-adv-x="331" 
d="M230 0c-8.66699 63.333 -17.667 125.831 -27 187.498s-19.666 123.834 -30.999 186.501c-3.33301 -0.666992 -6.33301 -1 -9 -1h-9h-41v-373h-76v823h125c48 0 83.833 -11.167 107.5 -33.5s35.5 -60.5 35.5 -114.5v-164c0 -60 -20.333 -100.333 -61 -121
c13.333 -65.333 25.666 -130.666 36.999 -195.999s22 -130 32 -194h-83zM228 664.998c0 29.333 -4.33203 50.167 -12.999 62.5s-26.334 18.5 -53.001 18.5h-49v-304h50c23.333 0 40 5.5 50 16.5s15 28.167 15 51.5v155zM115.001 859.999l112 161h89l-135 -161h-66z" />
    <glyph glyph-name="racute" unicode="&#x155;" horiz-adv-x="207" 
d="M37 0v619h58c2 -15.333 3 -30.333 3 -45c8.66699 18 19.167 31 31.5 39s26.833 12 43.5 12c7.33301 0 14.333 -1.33301 21 -4v-77c-3.33301 2.66699 -8 4.5 -14 5.5s-11.667 1.5 -17 1.5c-10.667 0 -21.167 -2.5 -31.5 -7.5s-18.833 -14.833 -25.5 -29.5v-514h-69z
M53 656l112 161h89l-135 -161h-66z" />
    <glyph glyph-name="Rcommaaccent" unicode="&#x156;" horiz-adv-x="331" 
d="M230 0c-8.66699 63.333 -17.667 125.831 -27 187.498s-19.666 123.834 -30.999 186.501c-3.33301 -0.666992 -6.33301 -1 -9 -1h-9h-41v-373h-76v823h125c48 0 83.833 -11.167 107.5 -33.5s35.5 -60.5 35.5 -114.5v-164c0 -60 -20.333 -100.333 -61 -121
c13.333 -65.333 25.666 -130.666 36.999 -195.999s22 -130 32 -194h-83zM228 664.998c0 29.333 -4.33203 50.167 -12.999 62.5s-26.334 18.5 -53.001 18.5h-49v-304h50c23.333 0 40 5.5 50 16.5s15 28.167 15 51.5v155zM154.001 -149.001v25.001h8c7.33301 0 11 4 11 12v20
h-27v72h58v-90c0 -12.667 -3 -22.334 -9 -29.001s-16 -10 -30 -10h-11z" />
    <glyph glyph-name="rcommaaccent" unicode="&#x157;" horiz-adv-x="207" 
d="M37 0v619h58c2 -15.333 3 -30.333 3 -45c8.66699 18 19.167 31 31.5 39s26.833 12 43.5 12c7.33301 0 14.333 -1.33301 21 -4v-77c-3.33301 2.66699 -8 4.5 -14 5.5s-11.667 1.5 -17 1.5c-10.667 0 -21.167 -2.5 -31.5 -7.5s-18.833 -14.833 -25.5 -29.5v-514h-69z
M52 -149v25.001h8c7.33301 0 11 4 11 12v20h-27v72h58v-90c0 -12.667 -3 -22.334 -9 -29.001s-16 -10 -30 -10h-11z" />
    <glyph glyph-name="Rcaron" unicode="&#x158;" horiz-adv-x="331" 
d="M230 0c-8.66699 63.333 -17.667 125.831 -27 187.498s-19.666 123.834 -30.999 186.501c-3.33301 -0.666992 -6.33301 -1 -9 -1h-9h-41v-373h-76v823h125c48 0 83.833 -11.167 107.5 -33.5s35.5 -60.5 35.5 -114.5v-164c0 -60 -20.333 -100.333 -61 -121
c13.333 -65.333 25.666 -130.666 36.999 -195.999s22 -130 32 -194h-83zM228 664.998c0 29.333 -4.33203 50.167 -12.999 62.5s-26.334 18.5 -53.001 18.5h-49v-304h50c23.333 0 40 5.5 50 16.5s15 28.167 15 51.5v155zM125.001 859.999l-104 161h67l80 -123l81 123h64
l-108 -161h-80z" />
    <glyph glyph-name="rcaron" unicode="&#x159;" horiz-adv-x="207" 
d="M37 0v619h58c2 -15.333 3 -30.333 3 -45c8.66699 18 19.167 31 31.5 39s26.833 12 43.5 12c7.33301 0 14.333 -1.33301 21 -4v-77c-3.33301 2.66699 -8 4.5 -14 5.5s-11.667 1.5 -17 1.5c-10.667 0 -21.167 -2.5 -31.5 -7.5s-18.833 -14.833 -25.5 -29.5v-514h-69z
M63 656l-104 161h67l80 -123l81 123h64l-108 -161h-80z" />
    <glyph glyph-name="Sacute" unicode="&#x15a;" horiz-adv-x="310" 
d="M207 244c0 12 -0.333008 22.165 -1 30.498s-2 15.5 -4 21.5s-4.66699 11.5 -8 16.5s-7.33301 10.5 -12 16.5c-10 12 -20 23.167 -30 33.5l-31 31l-32.5 33c-11 11.667 -22.5 24.834 -34.5 39.501c-13.333 15.333 -21.166 31.166 -23.499 47.499s-3.5 36.166 -3.5 59.499
v123c0 90.667 42.667 136 128 136c46 0 78.333 -11.167 97 -33.5s28 -56.5 28 -102.5v-150h-71v140c0 20.667 -3.5 37.334 -10.5 50.001s-20.833 19 -41.5 19c-35.333 0 -53 -19.667 -53 -59v-122c0 -17.333 1.16699 -30 3.5 -38s7.16602 -16.667 14.499 -26
c20 -25.333 40.5 -47.666 61.5 -66.999s42.167 -41.666 63.5 -66.999c14.667 -17.333 24.334 -35.333 29.001 -54s7 -44.334 7 -77.001v-118c0 -44 -9.83301 -77.667 -29.5 -101s-52.5 -35 -98.5 -35c-44.667 0 -77.167 11.667 -97.5 35s-30.5 57 -30.5 101v175h73v-164
c0 -21.333 3.83301 -38.666 11.5 -51.999s21.5 -20 41.5 -20c19.333 0 33.166 5.16699 41.499 15.5s12.5 25.5 12.5 45.5v117zM104 859.998l112 161h89l-135 -161h-66z" />
    <glyph glyph-name="sacute" unicode="&#x15b;" horiz-adv-x="278" 
d="M181 179c0 13.333 -1.83105 24.832 -5.49805 34.499s-11.834 22.167 -24.501 37.5c-14 16.667 -29.667 32.5 -47 47.5s-32.333 30.167 -45 45.5c-13.333 14.667 -22 29.334 -26 44.001s-6 34 -6 58v64c0 42.667 9.33301 73.167 28 91.5s46 27.5 82 27.5
c42 0 70.833 -9.5 86.5 -28.5s23.5 -49.167 23.5 -90.5v-101h-63v101c0 15.333 -4.33301 27.5 -13 36.5s-19.334 13.5 -32.001 13.5c-30 0 -45 -16.667 -45 -50v-73c0 -14.667 1.83301 -26.167 5.5 -34.5s11.167 -18.5 22.5 -30.5c13.333 -14.667 28.333 -28.667 45 -42
s31.334 -27.333 44.001 -42c15.333 -18 25.666 -35.5 30.999 -52.5s8 -38.833 8 -65.5v-67c0 -39.333 -9.5 -67.833 -28.5 -85.5s-47.833 -26.5 -86.5 -26.5c-72 0 -108 38.333 -108 115v101h62v-99c0 -15.333 4.5 -27.5 13.5 -36.5s20.167 -13.5 33.5 -13.5
c30 0 45 16.667 45 50v71zM88.002 655.999l112 161h89l-135 -161h-66z" />
    <glyph glyph-name="Scedilla" unicode="&#x15e;" horiz-adv-x="310" 
d="M207 244c0 12 -0.333008 22.165 -1 30.498s-2 15.5 -4 21.5s-4.66699 11.5 -8 16.5s-7.33301 10.5 -12 16.5c-10 12 -20 23.167 -30 33.5l-31 31l-32.5 33c-11 11.667 -22.5 24.834 -34.5 39.501c-13.333 15.333 -21.166 31.166 -23.499 47.499s-3.5 36.166 -3.5 59.499
v123c0 90.667 42.667 136 128 136c46 0 78.333 -11.167 97 -33.5s28 -56.5 28 -102.5v-150h-71v140c0 20.667 -3.5 37.334 -10.5 50.001s-20.833 19 -41.5 19c-35.333 0 -53 -19.667 -53 -59v-122c0 -17.333 1.16699 -30 3.5 -38s7.16602 -16.667 14.499 -26
c20 -25.333 40.5 -47.666 61.5 -66.999s42.167 -41.666 63.5 -66.999c14.667 -17.333 24.334 -35.333 29.001 -54s7 -44.334 7 -77.001v-118c0 -44 -9.83301 -77.667 -29.5 -101s-52.5 -35 -98.5 -35c-44.667 0 -77.167 11.667 -97.5 35s-30.5 57 -30.5 101v175h73v-164
c0 -21.333 3.83301 -38.666 11.5 -51.999s21.5 -20 41.5 -20c19.333 0 33.166 5.16699 41.499 15.5s12.5 25.5 12.5 45.5v117zM134 -149.002v25.001h8c7.33301 0 11 4 11 12v20h-27v72h58v-90c0 -12.667 -3 -22.334 -9 -29.001s-16 -10 -30 -10h-11z" />
    <glyph glyph-name="scedilla" unicode="&#x15f;" horiz-adv-x="278" 
d="M181 179c0 13.333 -1.83105 24.832 -5.49805 34.499s-11.834 22.167 -24.501 37.5c-14 16.667 -29.667 32.5 -47 47.5s-32.333 30.167 -45 45.5c-13.333 14.667 -22 29.334 -26 44.001s-6 34 -6 58v64c0 42.667 9.33301 73.167 28 91.5s46 27.5 82 27.5
c42 0 70.833 -9.5 86.5 -28.5s23.5 -49.167 23.5 -90.5v-101h-63v101c0 15.333 -4.33301 27.5 -13 36.5s-19.334 13.5 -32.001 13.5c-30 0 -45 -16.667 -45 -50v-73c0 -14.667 1.83301 -26.167 5.5 -34.5s11.167 -18.5 22.5 -30.5c13.333 -14.667 28.333 -28.667 45 -42
s31.334 -27.333 44.001 -42c15.333 -18 25.666 -35.5 30.999 -52.5s8 -38.833 8 -65.5v-67c0 -39.333 -9.5 -67.833 -28.5 -85.5s-47.833 -26.5 -86.5 -26.5c-72 0 -108 38.333 -108 115v101h62v-99c0 -15.333 4.5 -27.5 13.5 -36.5s20.167 -13.5 33.5 -13.5
c30 0 45 16.667 45 50v71zM118.002 -149.001v25.001h8c7.33301 0 11 4 11 12v20h-27v72h58v-90c0 -12.667 -3 -22.334 -9 -29.001s-16 -10 -30 -10h-11z" />
    <glyph glyph-name="Scaron" unicode="&#x160;" horiz-adv-x="310" 
d="M207 244c0 12 -0.333008 22.165 -1 30.498s-2 15.5 -4 21.5s-4.66699 11.5 -8 16.5s-7.33301 10.5 -12 16.5c-10 12 -20 23.167 -30 33.5l-31 31l-32.5 33c-11 11.667 -22.5 24.834 -34.5 39.501c-13.333 15.333 -21.166 31.166 -23.499 47.499s-3.5 36.166 -3.5 59.499
v123c0 90.667 42.667 136 128 136c46 0 78.333 -11.167 97 -33.5s28 -56.5 28 -102.5v-150h-71v140c0 20.667 -3.5 37.334 -10.5 50.001s-20.833 19 -41.5 19c-35.333 0 -53 -19.667 -53 -59v-122c0 -17.333 1.16699 -30 3.5 -38s7.16602 -16.667 14.499 -26
c20 -25.333 40.5 -47.666 61.5 -66.999s42.167 -41.666 63.5 -66.999c14.667 -17.333 24.334 -35.333 29.001 -54s7 -44.334 7 -77.001v-118c0 -44 -9.83301 -77.667 -29.5 -101s-52.5 -35 -98.5 -35c-44.667 0 -77.167 11.667 -97.5 35s-30.5 57 -30.5 101v175h73v-164
c0 -21.333 3.83301 -38.666 11.5 -51.999s21.5 -20 41.5 -20c19.333 0 33.166 5.16699 41.499 15.5s12.5 25.5 12.5 45.5v117zM114 859.998l-104 161h67l80 -123l81 123h64l-108 -161h-80z" />
    <glyph glyph-name="scaron" unicode="&#x161;" horiz-adv-x="278" 
d="M181 179c0 13.333 -1.83105 24.832 -5.49805 34.499s-11.834 22.167 -24.501 37.5c-14 16.667 -29.667 32.5 -47 47.5s-32.333 30.167 -45 45.5c-13.333 14.667 -22 29.334 -26 44.001s-6 34 -6 58v64c0 42.667 9.33301 73.167 28 91.5s46 27.5 82 27.5
c42 0 70.833 -9.5 86.5 -28.5s23.5 -49.167 23.5 -90.5v-101h-63v101c0 15.333 -4.33301 27.5 -13 36.5s-19.334 13.5 -32.001 13.5c-30 0 -45 -16.667 -45 -50v-73c0 -14.667 1.83301 -26.167 5.5 -34.5s11.167 -18.5 22.5 -30.5c13.333 -14.667 28.333 -28.667 45 -42
s31.334 -27.333 44.001 -42c15.333 -18 25.666 -35.5 30.999 -52.5s8 -38.833 8 -65.5v-67c0 -39.333 -9.5 -67.833 -28.5 -85.5s-47.833 -26.5 -86.5 -26.5c-72 0 -108 38.333 -108 115v101h62v-99c0 -15.333 4.5 -27.5 13.5 -36.5s20.167 -13.5 33.5 -13.5
c30 0 45 16.667 45 50v71zM98.002 655.999l-104 161h67l80 -123l81 123h64l-108 -161h-80z" />
    <glyph glyph-name="Tcommaaccent" unicode="&#x162;" horiz-adv-x="281" 
d="M103 0v746h-92v77h259v-77h-92v-746h-75zM121 -149v25.001h8c7.33301 0 11 4 11 12v20h-27v72h58v-90c0 -12.667 -3 -22.334 -9 -29.001s-16 -10 -30 -10h-11z" />
    <glyph glyph-name="tcommaaccent" unicode="&#x163;" horiz-adv-x="191" 
d="M180 -4c-3.33301 -1.33301 -8.16797 -2.50098 -14.501 -3.50098s-12.166 -1.5 -17.499 -1.5c-36.667 0 -64 11.333 -82 34s-27 54 -27 94v439h-29v61h29v196h69v-196h70v-61h-70v-439c0 -25.333 4.5 -43.166 13.5 -53.499s24.167 -15.5 45.5 -15.5h6.5
c2.33301 0 4.5 0.333008 6.5 1v-55zM91.998 -149.001v25.001h8c7.33301 0 11 4 11 12v20h-27v72h58v-90c0 -12.667 -3 -22.334 -9 -29.001s-16 -10 -30 -10h-11z" />
    <glyph glyph-name="Tcaron" unicode="&#x164;" horiz-adv-x="281" 
d="M103 0v746h-92v77h259v-77h-92v-746h-75zM100 860l-104 161h67l80 -123l81 123h64l-108 -161h-80z" />
    <glyph glyph-name="tcaron" unicode="&#x165;" horiz-adv-x="220" 
d="M180 -4c-3.33301 -1.33301 -8.16797 -2.50098 -14.501 -3.50098s-12.166 -1.5 -17.499 -1.5c-36.667 0 -64 11.333 -82 34s-27 54 -27 94v439h-29v61h29v196h69v-196h70v-61h-70v-439c0 -25.333 4.5 -43.166 13.5 -53.499s24.167 -15.5 45.5 -15.5h6.5
c2.33301 0 4.5 0.333008 6.5 1v-55zM157.998 637.999l-0.000976562 33h6c11.333 0 17 6 17 18v31h-33v103h72v-129c0 -17.333 -4.16699 -31 -12.5 -41s-22.166 -15 -41.499 -15h-8z" />
    <glyph glyph-name="Tbar" unicode="&#x166;" horiz-adv-x="281" 
d="M103 0v399h-52v59h52v288h-92v77h259v-77h-92v-288h51v-59h-51v-399h-75z" />
    <glyph glyph-name="tbar" unicode="&#x167;" horiz-adv-x="191" 
d="M108 295l-0.00195312 -176.001c0 -25.333 4.5 -43.166 13.5 -53.499s24.167 -15.5 45.5 -15.5h6.5c2.33301 0 4.5 0.333008 6.5 1v-55c-3.33301 -1.33301 -8.16602 -2.5 -14.499 -3.5s-12.166 -1.5 -17.499 -1.5c-36.667 0 -64 11.333 -82 34s-27 54 -27 94v176h-23v59
h23v204h-29v61h29v196h69v-196h70v-61h-70v-204h66v-59h-66z" />
    <glyph glyph-name="Utilde" unicode="&#x168;" horiz-adv-x="326" 
d="M216 823h76v-692c0 -93.333 -43 -140 -129 -140s-129 46.667 -129 140v692h76v-692c0 -43.333 17.667 -65 53 -65s53 21.667 53 65v692zM282 917c-6 -7.33301 -14.165 -13.498 -24.498 -18.498s-22.5 -7.5 -36.5 -7.5c-11.333 0 -22 1.66699 -32 5
s-19.833 7.16602 -29.5 11.499s-19.334 8.16602 -29.001 11.499s-19.834 5 -30.501 5s-21 -2.66699 -31 -8s-18.667 -13 -26 -23v61c6.66699 7.33301 14.834 13.666 24.501 18.999s21.5 8 35.5 8c12 0 23 -1.66699 33 -5s19.833 -7.16602 29.5 -11.499
s19.167 -8.16602 28.5 -11.499s19.666 -5 30.999 -5c10.667 0 21 2.66699 31 8s18.667 12.666 26 21.999v-61z" />
    <glyph glyph-name="utilde" unicode="&#x169;" horiz-adv-x="300" 
d="M204 0c-0.666992 7.33301 -1.16797 14.667 -1.50098 22s-0.5 15 -0.5 23c-9.33301 -16.667 -21.5 -29.5 -36.5 -38.5s-32.167 -13.5 -51.5 -13.5c-53.333 0 -80 35.667 -80 107v519h69v-508c0 -18.667 3 -31.667 9 -39s15.667 -11 29 -11
c10.667 0 20.834 2.83301 30.501 8.5s17.167 15.167 22.5 28.5v521h69v-619h-59zM270.999 713.001c-6 -7.33301 -14.165 -13.498 -24.498 -18.498s-22.5 -7.5 -36.5 -7.5c-11.333 0 -22 1.66699 -32 5s-19.833 7.16602 -29.5 11.499s-19.334 8.16602 -29.001 11.499
s-19.834 5 -30.501 5s-21 -2.66699 -31 -8s-18.667 -13 -26 -23v61c6.66699 7.33301 14.834 13.666 24.501 18.999s21.5 8 35.5 8c12 0 23 -1.66699 33 -5s19.833 -7.16602 29.5 -11.499s19.167 -8.16602 28.5 -11.499s19.666 -5 30.999 -5c10.667 0 21 2.66699 31 8
s18.667 12.666 26 21.999v-61z" />
    <glyph glyph-name="Umacron" unicode="&#x16a;" horiz-adv-x="326" 
d="M216 823h76v-692c0 -93.333 -43 -140 -129 -140s-129 46.667 -129 140v692h76v-692c0 -43.333 17.667 -65 53 -65s53 21.667 53 65v692zM48 904v59h230v-59h-230z" />
    <glyph glyph-name="umacron" unicode="&#x16b;" horiz-adv-x="300" 
d="M204 0c-0.666992 7.33301 -1.16797 14.667 -1.50098 22s-0.5 15 -0.5 23c-9.33301 -16.667 -21.5 -29.5 -36.5 -38.5s-32.167 -13.5 -51.5 -13.5c-53.333 0 -80 35.667 -80 107v519h69v-508c0 -18.667 3 -31.667 9 -39s15.667 -11 29 -11
c10.667 0 20.834 2.83301 30.501 8.5s17.167 15.167 22.5 28.5v521h69v-619h-59zM35.999 700.001v59h230v-59h-230z" />
    <glyph glyph-name="Ubreve" unicode="&#x16c;" horiz-adv-x="326" 
d="M216 823h76v-692c0 -93.333 -43 -140 -129 -140s-129 46.667 -129 140v692h76v-692c0 -43.333 17.667 -65 53 -65s53 21.667 53 65v692zM298 1015c0 -30 -2.66992 -54.667 -8.00293 -74s-13.5 -34.833 -24.5 -46.5s-24.833 -19.667 -41.5 -24s-36 -6.5 -58 -6.5
c-26 0 -47.667 2.16699 -65 6.5s-31.166 12.333 -41.499 24s-17.833 27.167 -22.5 46.5s-7 44 -7 74h61c0 -24 1.83301 -43.333 5.5 -58s8.5 -25.834 14.5 -33.501s13.5 -12.667 22.5 -15s19.167 -3.5 30.5 -3.5c10 0 19.333 1.16699 28 3.5s16.334 7.33301 23.001 15
s11.834 18.834 15.501 33.501s5.5 34 5.5 58h62z" />
    <glyph glyph-name="ubreve" unicode="&#x16d;" horiz-adv-x="300" 
d="M204 0c-0.666992 7.33301 -1.16797 14.667 -1.50098 22s-0.5 15 -0.5 23c-9.33301 -16.667 -21.5 -29.5 -36.5 -38.5s-32.167 -13.5 -51.5 -13.5c-53.333 0 -80 35.667 -80 107v519h69v-508c0 -18.667 3 -31.667 9 -39s15.667 -11 29 -11
c10.667 0 20.834 2.83301 30.501 8.5s17.167 15.167 22.5 28.5v521h69v-619h-59zM284.999 811.001c0 -30 -2.66992 -54.667 -8.00293 -74s-13.5 -34.833 -24.5 -46.5s-24.833 -19.667 -41.5 -24s-36 -6.5 -58 -6.5c-26 0 -47.667 2.16699 -65 6.5s-31.166 12.333 -41.499 24
s-17.833 27.167 -22.5 46.5s-7 44 -7 74h61c0 -24 1.83301 -43.333 5.5 -58s8.5 -25.834 14.5 -33.501s13.5 -12.667 22.5 -15s19.167 -3.5 30.5 -3.5c10 0 19.333 1.16699 28 3.5s16.334 7.33301 23.001 15s11.834 18.834 15.501 33.501s5.5 34 5.5 58h62z" />
    <glyph glyph-name="Uring" unicode="&#x16e;" horiz-adv-x="326" 
d="M216 823h76v-692c0 -93.333 -43 -140 -129 -140s-129 46.667 -129 140v692h76v-692c0 -43.333 17.667 -65 53 -65s53 21.667 53 65v692zM259 941c0 -22.667 -8.16699 -41.334 -24.5 -56.001s-40.5 -22 -72.5 -22s-56 7.33301 -72 22s-24 33.334 -24 56.001
c0 23.333 8 42.5 24 57.5s40 22.5 72 22.5s56.167 -7.5 72.5 -22.5s24.5 -34.167 24.5 -57.5zM219 941c0 30.667 -19 46 -57 46c-38.667 0 -58 -15.333 -58 -46c0 -30 19.333 -45 58 -45c38 0 57 15 57 45z" />
    <glyph glyph-name="uring" unicode="&#x16f;" horiz-adv-x="300" 
d="M204 0c-0.666992 7.33301 -1.16797 14.667 -1.50098 22s-0.5 15 -0.5 23c-9.33301 -16.667 -21.5 -29.5 -36.5 -38.5s-32.167 -13.5 -51.5 -13.5c-53.333 0 -80 35.667 -80 107v519h69v-508c0 -18.667 3 -31.667 9 -39s15.667 -11 29 -11
c10.667 0 20.834 2.83301 30.501 8.5s17.167 15.167 22.5 28.5v521h69v-619h-59zM245.999 737.001c0 -22.667 -8.16699 -41.334 -24.5 -56.001s-40.5 -22 -72.5 -22s-56 7.33301 -72 22s-24 33.334 -24 56.001c0 23.333 8 42.5 24 57.5s40 22.5 72 22.5
s56.167 -7.5 72.5 -22.5s24.5 -34.167 24.5 -57.5zM205.999 737.001c0 30.667 -19 46 -57 46c-38.667 0 -58 -15.333 -58 -46c0 -30 19.333 -45 58 -45c38 0 57 15 57 45z" />
    <glyph glyph-name="Uhungarumlaut" unicode="&#x170;" horiz-adv-x="326" 
d="M216 823h76v-692c0 -93.333 -43 -140 -129 -140s-129 46.667 -129 140v692h76v-692c0 -43.333 17.667 -65 53 -65s53 21.667 53 65v692zM194 860l112 161h90l-135 -161h-67zM32 860l112 161h89l-135 -161h-66z" />
    <glyph glyph-name="uhungarumlaut" unicode="&#x171;" horiz-adv-x="300" 
d="M204 0c-0.666992 7.33301 -1.16797 14.667 -1.50098 22s-0.5 15 -0.5 23c-9.33301 -16.667 -21.5 -29.5 -36.5 -38.5s-32.167 -13.5 -51.5 -13.5c-53.333 0 -80 35.667 -80 107v519h69v-508c0 -18.667 3 -31.667 9 -39s15.667 -11 29 -11
c10.667 0 20.834 2.83301 30.501 8.5s17.167 15.167 22.5 28.5v521h69v-619h-59zM180.999 656.001l112 161h90l-135 -161h-67zM18.999 656.001l112 161h89l-135 -161h-66z" />
    <glyph glyph-name="Uogonek" unicode="&#x172;" horiz-adv-x="326" 
d="M250 -49c0 -32 -7.99805 -56.6689 -23.998 -74.002s-45 -26 -87 -26c-24 0 -43.833 5.83301 -59.5 17.5s-23.5 28.5 -23.5 50.5c0 17.333 6.16699 32.5 18.5 45.5s30.166 22.833 53.499 29.5c-62.667 10.667 -94 56.334 -94 137.001v692h76v-692
c0 -43.333 17.667 -65 53 -65s53 21.667 53 65v692h76v-692c0 -44 -9.5 -76.667 -28.5 -98s-46.833 -35 -83.5 -41c-24.667 -4 -43.334 -11.5 -56.001 -22.5s-19 -23.5 -19 -37.5c0 -7.33301 2.83301 -14.666 8.5 -21.999s15.5 -11 29.5 -11
c19.333 0 32.333 4.83301 39 14.5s10 22.167 10 37.5v11h58v-11z" />
    <glyph glyph-name="uogonek" unicode="&#x173;" horiz-adv-x="300" 
d="M292 -49c0 -32 -8.00098 -56.6699 -24.001 -74.0029s-45 -26 -87 -26c-24 0 -43.833 5.83301 -59.5 17.5s-23.5 28.5 -23.5 50.5c0 20.667 9 38.334 27 53.001s44.333 24 79 28c-0.666992 7.33301 -1.16699 14.666 -1.5 21.999s-0.5 15 -0.5 23
c-9.33301 -16.667 -21.5 -29.5 -36.5 -38.5s-32.167 -13.5 -51.5 -13.5c-53.333 0 -80 35.667 -80 107v519h69v-508c0 -18.667 3 -31.667 9 -39s15.667 -11 29 -11c10.667 0 20.834 2.83301 30.501 8.5s17.167 15.167 22.5 28.5v521h69v-619
c-36.667 -5.33301 -65.167 -13.666 -85.5 -24.999s-30.5 -25.666 -30.5 -42.999c0 -7.33301 2.83301 -14.666 8.5 -21.999s15.5 -11 29.5 -11c19.333 0 32.333 4.83301 39 14.5s10 22.167 10 37.5v11h58v-11z" />
    <glyph glyph-name="Wcircumflex" unicode="&#x174;" horiz-adv-x="526" 
d="M318 0l-10.9961 101.499l-12 119.5l-12 124c-4 41.333 -7.5 79.666 -10.5 114.999l-8 92.5c-2.33301 26.333 -3.83301 45.5 -4.5 57.5c-0.666992 -12 -2.16699 -31.167 -4.5 -57.5s-5.33301 -57.166 -9 -92.499l-11.5 -115l-12.5 -124l-13 -119.5
c-4.33301 -38.333 -8.5 -72.166 -12.5 -101.499h-93l-92 823h79c4 -34 8.16699 -71.667 12.5 -113l13 -127.5l12.5 -129.5l11 -118.5c3.33301 -36.333 6.16602 -68.5 8.49902 -96.5s4.16602 -48.667 5.49902 -62l6 62c2.66699 28 6 60.167 10 96.5l13 118.5l14 129.5
c4.66699 43.667 9.5 86.167 14.5 127.5l13.5 113h76l11.5 -113l13 -127.5l12.5 -129.5l11 -118.5c3.33301 -36.333 6.16602 -68.5 8.49902 -96.5s4.16602 -48.667 5.49902 -62l6.5 62l10 96.5l12.5 118.5l14 129.5c4.66699 43.667 9.5 86.167 14.5 127.5l13.5 113h80
l-104 -823h-92zM342.004 859.999l-79 123l-82 -123h-64l108 161h80l104 -161h-67z" />
    <glyph glyph-name="wcircumflex" unicode="&#x175;" horiz-adv-x="418" 
d="M253 0l-46 462l-52 -462h-82l-60 619h65l39 -486l57 486h67l51 -486l47 486h65l-68 -619h-83zM288 656l-79 123l-82 -123h-64l108 161h80l104 -161h-67z" />
    <glyph glyph-name="Ycircumflex" unicode="&#x176;" horiz-adv-x="332" 
d="M125 0v369l-116 454h80l22 -90.5l23 -97.5l20 -88.5c6 -27 10.333 -47.833 13 -62.5c2.66699 14.667 7 35.5 13 62.5l20.5 88.5l24 97.5l23.5 90.5h74l-120 -454v-369h-77zM246 860l-79 123l-82 -123h-64l108 161h80l104 -161h-67z" />
    <glyph glyph-name="ycircumflex" unicode="&#x177;" horiz-adv-x="277" 
d="M19 -70c9.33301 -3.33301 20.667 -4.99805 34 -4.99805c14 0 24.167 5.66699 30.5 17s11.166 26.666 14.499 45.999l4 25l-91 606h72c3.33301 -23.333 6.83301 -49.333 10.5 -78l11 -89l10.5 -91.5l9.5 -86c3 -27 5.5 -51 7.5 -72s3.66699 -37.5 5 -49.5l5.5 49.5
c2.33301 21 5.16602 44.833 8.49902 71.5l11 86l12 92l12 89c4 28.667 8 54.667 12 78h66l-94 -627c-3.33301 -22 -7.33301 -41.333 -12 -58s-11.167 -30.834 -19.5 -42.501s-19.166 -20.5 -32.499 -26.5s-30 -9 -50 -9c-6.66699 0 -13.167 0.5 -19.5 1.5
s-12.166 2.16699 -17.499 3.5v69zM219.001 656.002l-79 123l-82 -123h-64l108 161h80l104 -161h-67z" />
    <glyph glyph-name="Ydieresis" unicode="&#x178;" horiz-adv-x="332" 
d="M125 0v369l-116 454h80l22 -90.5l23 -97.5l20 -88.5c6 -27 10.333 -47.833 13 -62.5c2.66699 14.667 7 35.5 13 62.5l20.5 88.5l24 97.5l23.5 90.5h74l-120 -454v-369h-77zM206 872v125h69v-125h-69zM56 872v125h69v-125h-69z" />
    <glyph glyph-name="Zacute" unicode="&#x179;" horiz-adv-x="307" 
d="M25 0v76l182 673h-175v74h251v-69l-179 -677h179v-77h-258zM103 860l112 161h89l-135 -161h-66z" />
    <glyph glyph-name="zacute" unicode="&#x17a;" horiz-adv-x="256" 
d="M25 0v64l141 487h-139v68h205v-64l-138 -485h137v-70h-206zM77 656l112 161h89l-135 -161h-66z" />
    <glyph glyph-name="Zdotaccent" unicode="&#x17b;" horiz-adv-x="307" 
d="M25 0v76l182 673h-175v74h251v-69l-179 -677h179v-77h-258zM124 872v125h69v-125h-69z" />
    <glyph glyph-name="zdotaccent" unicode="&#x17c;" horiz-adv-x="256" 
d="M25 0v64l141 487h-139v68h205v-64l-138 -485h137v-70h-206zM93 668v125h69v-125h-69z" />
    <glyph glyph-name="Zcaron" unicode="&#x17d;" horiz-adv-x="307" 
d="M25 0v76l182 673h-175v74h251v-69l-179 -677h179v-77h-258zM118 860l-104 161h67l80 -123l81 123h64l-108 -161h-80z" />
    <glyph glyph-name="zcaron" unicode="&#x17e;" horiz-adv-x="256" 
d="M25 0v64l141 487h-139v68h205v-64l-138 -485h137v-70h-206zM87 656l-104 161h67l80 -123l81 123h64l-108 -161h-80z" />
    <glyph glyph-name="florin" unicode="&#x192;" horiz-adv-x="405" 
d="M17 61c6.66699 -2 14 -3.66992 22 -5.00293s17.667 -2 29 -2c23.333 0 39.666 6 48.999 18s15.666 33 18.999 63l49 434h-83v58h89l11 82c2.66699 22.667 7.33398 41.834 14.001 57.501s15.667 28.334 27 38.001s25.166 16.667 41.499 21s35.833 6.5 58.5 6.5
c12.667 0 23.5 -1 32.5 -3s15.833 -4 20.5 -6v-62c-7.33301 2 -14.833 3.5 -22.5 4.5s-17.5 1.5 -29.5 1.5c-21.333 0 -36.666 -4.33301 -45.999 -13s-15.333 -24.667 -18 -48l-10 -79h105v-58h-113l-48 -440c-5.33301 -51.333 -19.166 -87.166 -41.499 -107.499
s-56.833 -30.5 -103.5 -30.5c-12 0 -22.667 1 -32 3s-16 4 -20 6v61z" />
    <glyph glyph-name="Scommaaccent" unicode="&#x218;" horiz-adv-x="310" 
d="M207 244c0 12 -0.333008 22.165 -1 30.498s-2 15.5 -4 21.5s-4.66699 11.5 -8 16.5s-7.33301 10.5 -12 16.5c-10 12 -20 23.167 -30 33.5l-31 31l-32.5 33c-11 11.667 -22.5 24.834 -34.5 39.501c-13.333 15.333 -21.166 31.166 -23.499 47.499s-3.5 36.166 -3.5 59.499
v123c0 90.667 42.667 136 128 136c46 0 78.333 -11.167 97 -33.5s28 -56.5 28 -102.5v-150h-71v140c0 20.667 -3.5 37.334 -10.5 50.001s-20.833 19 -41.5 19c-35.333 0 -53 -19.667 -53 -59v-122c0 -17.333 1.16699 -30 3.5 -38s7.16602 -16.667 14.499 -26
c20 -25.333 40.5 -47.666 61.5 -66.999s42.167 -41.666 63.5 -66.999c14.667 -17.333 24.334 -35.333 29.001 -54s7 -44.334 7 -77.001v-118c0 -44 -9.83301 -77.667 -29.5 -101s-52.5 -35 -98.5 -35c-44.667 0 -77.167 11.667 -97.5 35s-30.5 57 -30.5 101v175h73v-164
c0 -21.333 3.83301 -38.666 11.5 -51.999s21.5 -20 41.5 -20c19.333 0 33.166 5.16699 41.499 15.5s12.5 25.5 12.5 45.5v117zM134 -149.002v25.001h8c7.33301 0 11 4 11 12v20h-27v72h58v-90c0 -12.667 -3 -22.334 -9 -29.001s-16 -10 -30 -10h-11z" />
    <glyph glyph-name="scommaaccent" unicode="&#x219;" horiz-adv-x="278" 
d="M181 179c0 13.333 -1.83105 24.832 -5.49805 34.499s-11.834 22.167 -24.501 37.5c-14 16.667 -29.667 32.5 -47 47.5s-32.333 30.167 -45 45.5c-13.333 14.667 -22 29.334 -26 44.001s-6 34 -6 58v64c0 42.667 9.33301 73.167 28 91.5s46 27.5 82 27.5
c42 0 70.833 -9.5 86.5 -28.5s23.5 -49.167 23.5 -90.5v-101h-63v101c0 15.333 -4.33301 27.5 -13 36.5s-19.334 13.5 -32.001 13.5c-30 0 -45 -16.667 -45 -50v-73c0 -14.667 1.83301 -26.167 5.5 -34.5s11.167 -18.5 22.5 -30.5c13.333 -14.667 28.333 -28.667 45 -42
s31.334 -27.333 44.001 -42c15.333 -18 25.666 -35.5 30.999 -52.5s8 -38.833 8 -65.5v-67c0 -39.333 -9.5 -67.833 -28.5 -85.5s-47.833 -26.5 -86.5 -26.5c-72 0 -108 38.333 -108 115v101h62v-99c0 -15.333 4.5 -27.5 13.5 -36.5s20.167 -13.5 33.5 -13.5
c30 0 45 16.667 45 50v71zM118.002 -149.001v25.001h8c7.33301 0 11 4 11 12v20h-27v72h58v-90c0 -12.667 -3 -22.334 -9 -29.001s-16 -10 -30 -10h-11z" />
    <glyph glyph-name="uni021A" unicode="&#x21a;" horiz-adv-x="281" 
d="M103 0v746h-92v77h259v-77h-92v-746h-75zM121 -149v25.001h8c7.33301 0 11 4 11 12v20h-27v72h58v-90c0 -12.667 -3 -22.334 -9 -29.001s-16 -10 -30 -10h-11z" />
    <glyph glyph-name="uni021B" unicode="&#x21b;" horiz-adv-x="191" 
d="M180 -4c-3.33301 -1.33301 -8.16797 -2.50098 -14.501 -3.50098s-12.166 -1.5 -17.499 -1.5c-36.667 0 -64 11.333 -82 34s-27 54 -27 94v439h-29v61h29v196h69v-196h70v-61h-70v-439c0 -25.333 4.5 -43.166 13.5 -53.499s24.167 -15.5 45.5 -15.5h6.5
c2.33301 0 4.5 0.333008 6.5 1v-55zM91.998 -149.001v25.001h8c7.33301 0 11 4 11 12v20h-27v72h58v-90c0 -12.667 -3 -22.334 -9 -29.001s-16 -10 -30 -10h-11z" />
    <glyph glyph-name="circumflex" unicode="&#x2c6;" horiz-adv-x="385" 
d="M271 656l-79 123l-82 -123h-64l108 161h80l104 -161h-67z" />
    <glyph glyph-name="caron" unicode="&#x2c7;" horiz-adv-x="385" 
d="M150 656l-104 161h67l80 -123l81 123h64l-108 -161h-80z" />
    <glyph glyph-name="breve" unicode="&#x2d8;" horiz-adv-x="341" 
d="M305 811c0 -30 -2.66992 -54.667 -8.00293 -74s-13.5 -34.833 -24.5 -46.5s-24.833 -19.667 -41.5 -24s-36 -6.5 -58 -6.5c-26 0 -47.667 2.16699 -65 6.5s-31.166 12.333 -41.499 24s-17.833 27.167 -22.5 46.5s-7 44 -7 74h61c0 -24 1.83301 -43.333 5.5 -58
s8.5 -25.834 14.5 -33.501s13.5 -12.667 22.5 -15s19.167 -3.5 30.5 -3.5c10 0 19.333 1.16699 28 3.5s16.334 7.33301 23.001 15s11.834 18.834 15.501 33.501s5.5 34 5.5 58h62z" />
    <glyph glyph-name="dotaccent" unicode="&#x2d9;" horiz-adv-x="144" 
d="M37 668v125h69v-125h-69z" />
    <glyph glyph-name="ring" unicode="&#x2da;" horiz-adv-x="267" 
d="M230 737c0 -22.667 -8.16699 -41.334 -24.5 -56.001s-40.5 -22 -72.5 -22s-56 7.33301 -72 22s-24 33.334 -24 56.001c0 23.333 8 42.5 24 57.5s40 22.5 72 22.5s56.167 -7.5 72.5 -22.5s24.5 -34.167 24.5 -57.5zM190 737c0 30.667 -19 46 -57 46
c-38.667 0 -58 -15.333 -58 -46c0 -30 19.333 -45 58 -45c38 0 57 15 57 45z" />
    <glyph glyph-name="ogonek" unicode="&#x2db;" horiz-adv-x="267" 
d="M231 -49c0 -32 -8 -56.6709 -24 -74.0039s-45 -26 -87 -26c-24 0 -43.833 5.83301 -59.5 17.5s-23.5 28.5 -23.5 50.5c0 20.667 9 38.334 27 53.001s44.333 24 79 28h59c-36.667 -5.33301 -65.167 -13.666 -85.5 -24.999s-30.5 -25.666 -30.5 -42.999
c0 -7.33301 2.83301 -14.666 8.5 -21.999s15.5 -11 29.5 -11c19.333 0 32.333 4.83301 39 14.5s10 22.167 10 37.5v11h58v-11z" />
    <glyph glyph-name="tilde" unicode="&#x2dc;" horiz-adv-x="314" 
d="M276 713c-6 -7.33301 -14.165 -13.498 -24.498 -18.498s-22.5 -7.5 -36.5 -7.5c-11.333 0 -22 1.66699 -32 5s-19.833 7.16602 -29.5 11.499s-19.334 8.16602 -29.001 11.499s-19.834 5 -30.501 5s-21 -2.66699 -31 -8s-18.667 -13 -26 -23v61
c6.66699 7.33301 14.834 13.666 24.501 18.999s21.5 8 35.5 8c12 0 23 -1.66699 33 -5s19.833 -7.16602 29.5 -11.499s19.167 -8.16602 28.5 -11.499s19.666 -5 30.999 -5c10.667 0 21 2.66699 31 8s18.667 12.666 26 21.999v-61z" />
    <glyph glyph-name="hungarumlaut" unicode="&#x2dd;" horiz-adv-x="437" 
d="M199 656l112 161h90l-135 -161h-67zM37 656l112 161h89l-135 -161h-66z" />
    <glyph glyph-name="Delta" unicode="&#x394;" horiz-adv-x="336" 
d="M12 0l109 823h101l102 -823h-312zM169 688l-73 -613h140z" />
    <glyph glyph-name="Omega" unicode="&#x3a9;" horiz-adv-x="265" 
d="M142 0l0.000976562 67c9.33301 40 17.333 93.667 24 161s10 152.666 10 255.999v202c0 24.667 -3.33301 42.334 -10 53.001s-17.667 16 -33 16c-16 0 -27.5 -5.33301 -34.5 -16s-10.5 -28.334 -10.5 -53.001v-202c0 -103.333 3.5 -188.666 10.5 -255.999
s15.167 -121 24.5 -161v-67h-88v75h49c-5.33301 14.667 -11 34 -17 58s-11.667 52.667 -17 86s-9.83301 71.833 -13.5 115.5s-5.5 92.167 -5.5 145.5v205c0 52 7.66699 89.5 23 112.5s41.666 34.5 78.999 34.5c36.667 0 62.667 -11.333 78 -34s23 -60 23 -112v-206
c0 -53.333 -1.83301 -101.833 -5.5 -145.5s-8.16699 -82.167 -13.5 -115.5s-11 -62 -17 -86s-11.667 -43.333 -17 -58h49v-75h-88z" />
    <glyph glyph-name="mu" unicode="&#x3bc;" horiz-adv-x="303" 
d="M207 0c-1.33301 7.33301 -2.00195 14.667 -2.00195 22v23c-7.33301 -15.333 -17.666 -26.333 -30.999 -33s-28 -10 -44 -10c-8 0 -16 1.66699 -24 5v-146h-69v758h69v-508c0 -18.667 2.83301 -31.667 8.5 -39s15.5 -11 29.5 -11c10.667 0 20.834 2.83301 30.501 8.5
s17.167 15.167 22.5 28.5v521h69v-619h-59z" />
    <glyph glyph-name="pi" unicode="&#x3c0;" horiz-adv-x="384" 
d="M372 2c-9.33301 -2.66699 -19.3311 -4.5 -29.998 -5.5s-21.334 -1.5 -32.001 -1.5c-34.667 0 -60 8.33301 -76 25s-24 40 -24 70v478h-97v-568h-76v619h249v-518c0 -14 2.66699 -26.667 8 -38s18.666 -17 39.999 -17c16 0 28.667 2 38 6v-50z" />
    <glyph glyph-name="Wgrave" unicode="&#x1e80;" horiz-adv-x="526" 
d="M318 0l-10.9961 101.499l-12 119.5l-12 124c-4 41.333 -7.5 79.666 -10.5 114.999l-8 92.5c-2.33301 26.333 -3.83301 45.5 -4.5 57.5c-0.666992 -12 -2.16699 -31.167 -4.5 -57.5s-5.33301 -57.166 -9 -92.499l-11.5 -115l-12.5 -124l-13 -119.5
c-4.33301 -38.333 -8.5 -72.166 -12.5 -101.499h-93l-92 823h79c4 -34 8.16699 -71.667 12.5 -113l13 -127.5l12.5 -129.5l11 -118.5c3.33301 -36.333 6.16602 -68.5 8.49902 -96.5s4.16602 -48.667 5.49902 -62l6 62c2.66699 28 6 60.167 10 96.5l13 118.5l14 129.5
c4.66699 43.667 9.5 86.167 14.5 127.5l13.5 113h76l11.5 -113l13 -127.5l12.5 -129.5l11 -118.5c3.33301 -36.333 6.16602 -68.5 8.49902 -96.5s4.16602 -48.667 5.49902 -62l6.5 62l10 96.5l12.5 118.5l14 129.5c4.66699 43.667 9.5 86.167 14.5 127.5l13.5 113h80
l-104 -823h-92zM246.004 859.999l-134 161h88l113 -161h-67z" />
    <glyph glyph-name="wgrave" unicode="&#x1e81;" horiz-adv-x="418" 
d="M253 0l-46 462l-52 -462h-82l-60 619h65l39 -486l57 486h67l51 -486l47 486h65l-68 -619h-83zM192 656l-134 161h88l113 -161h-67z" />
    <glyph glyph-name="Wacute" unicode="&#x1e82;" horiz-adv-x="526" 
d="M318 0l-10.9961 101.499l-12 119.5l-12 124c-4 41.333 -7.5 79.666 -10.5 114.999l-8 92.5c-2.33301 26.333 -3.83301 45.5 -4.5 57.5c-0.666992 -12 -2.16699 -31.167 -4.5 -57.5s-5.33301 -57.166 -9 -92.499l-11.5 -115l-12.5 -124l-13 -119.5
c-4.33301 -38.333 -8.5 -72.166 -12.5 -101.499h-93l-92 823h79c4 -34 8.16699 -71.667 12.5 -113l13 -127.5l12.5 -129.5l11 -118.5c3.33301 -36.333 6.16602 -68.5 8.49902 -96.5s4.16602 -48.667 5.49902 -62l6 62c2.66699 28 6 60.167 10 96.5l13 118.5l14 129.5
c4.66699 43.667 9.5 86.167 14.5 127.5l13.5 113h76l11.5 -113l13 -127.5l12.5 -129.5l11 -118.5c3.33301 -36.333 6.16602 -68.5 8.49902 -96.5s4.16602 -48.667 5.49902 -62l6.5 62l10 96.5l12.5 118.5l14 129.5c4.66699 43.667 9.5 86.167 14.5 127.5l13.5 113h80
l-104 -823h-92zM212.004 859.999l112 161h89l-135 -161h-66z" />
    <glyph glyph-name="wacute" unicode="&#x1e83;" horiz-adv-x="418" 
d="M253 0l-46 462l-52 -462h-82l-60 619h65l39 -486l57 486h67l51 -486l47 486h65l-68 -619h-83zM158 656l112 161h89l-135 -161h-66z" />
    <glyph glyph-name="Wdieresis" unicode="&#x1e84;" horiz-adv-x="526" 
d="M318 0l-10.9961 101.499l-12 119.5l-12 124c-4 41.333 -7.5 79.666 -10.5 114.999l-8 92.5c-2.33301 26.333 -3.83301 45.5 -4.5 57.5c-0.666992 -12 -2.16699 -31.167 -4.5 -57.5s-5.33301 -57.166 -9 -92.499l-11.5 -115l-12.5 -124l-13 -119.5
c-4.33301 -38.333 -8.5 -72.166 -12.5 -101.499h-93l-92 823h79c4 -34 8.16699 -71.667 12.5 -113l13 -127.5l12.5 -129.5l11 -118.5c3.33301 -36.333 6.16602 -68.5 8.49902 -96.5s4.16602 -48.667 5.49902 -62l6 62c2.66699 28 6 60.167 10 96.5l13 118.5l14 129.5
c4.66699 43.667 9.5 86.167 14.5 127.5l13.5 113h76l11.5 -113l13 -127.5l12.5 -129.5l11 -118.5c3.33301 -36.333 6.16602 -68.5 8.49902 -96.5s4.16602 -48.667 5.49902 -62l6.5 62l10 96.5l12.5 118.5l14 129.5c4.66699 43.667 9.5 86.167 14.5 127.5l13.5 113h80
l-104 -823h-92zM303.004 871.999v125h69v-125h-69zM153.004 871.999v125h69v-125h-69z" />
    <glyph glyph-name="wdieresis" unicode="&#x1e85;" horiz-adv-x="418" 
d="M253 0l-46 462l-52 -462h-82l-60 619h65l39 -486l57 486h67l51 -486l47 486h65l-68 -619h-83zM249 668v125h69v-125h-69zM99 668v125h69v-125h-69z" />
    <glyph glyph-name="Ygrave" unicode="&#x1ef2;" horiz-adv-x="332" 
d="M125 0v369l-116 454h80l22 -90.5l23 -97.5l20 -88.5c6 -27 10.333 -47.833 13 -62.5c2.66699 14.667 7 35.5 13 62.5l20.5 88.5l24 97.5l23.5 90.5h74l-120 -454v-369h-77zM151 860l-134 161h88l113 -161h-67z" />
    <glyph glyph-name="ygrave" unicode="&#x1ef3;" horiz-adv-x="277" 
d="M19 -70c9.33301 -3.33301 20.667 -4.99805 34 -4.99805c14 0 24.167 5.66699 30.5 17s11.166 26.666 14.499 45.999l4 25l-91 606h72c3.33301 -23.333 6.83301 -49.333 10.5 -78l11 -89l10.5 -91.5l9.5 -86c3 -27 5.5 -51 7.5 -72s3.66699 -37.5 5 -49.5l5.5 49.5
c2.33301 21 5.16602 44.833 8.49902 71.5l11 86l12 92l12 89c4 28.667 8 54.667 12 78h66l-94 -627c-3.33301 -22 -7.33301 -41.333 -12 -58s-11.167 -30.834 -19.5 -42.501s-19.166 -20.5 -32.499 -26.5s-30 -9 -50 -9c-6.66699 0 -13.167 0.5 -19.5 1.5
s-12.166 2.16699 -17.499 3.5v69zM123.001 656.002l-134 161h88l113 -161h-67z" />
    <glyph glyph-name="endash" unicode="&#x2013;" horiz-adv-x="279" 
d="M13 385v59h253v-59h-253z" />
    <glyph glyph-name="emdash" unicode="&#x2014;" horiz-adv-x="438" 
d="M13 385v59h413v-59h-413z" />
    <glyph glyph-name="quoteleft" unicode="&#x2018;" horiz-adv-x="134" 
d="M31 645l0.000976562 129.999c0 16.667 4.16699 30 12.5 40s22.166 15 41.499 15h8v-33h-7c-5.33301 0 -9.33301 -1.16699 -12 -3.5s-4 -7.16602 -4 -14.499v-31h33v-103h-72z" />
    <glyph glyph-name="quoteright" unicode="&#x2019;" horiz-adv-x="134" 
d="M41 638l-0.000976562 33h6c11.333 0 17 6 17 18v31h-33v103h72v-129c0 -17.333 -4.16699 -31 -12.5 -41s-22.166 -15 -41.499 -15h-8z" />
    <glyph glyph-name="quotesinglbase" unicode="&#x201a;" horiz-adv-x="138" 
d="M43 -60l-0.000976562 33h6c11.333 0 17 6 17 18v31h-33v103h72v-129c0 -17.333 -4.16699 -31 -12.5 -41s-22.166 -15 -41.499 -15h-8z" />
    <glyph glyph-name="quotedblleft" unicode="&#x201c;" horiz-adv-x="268" 
d="M31 645l0.000976562 129.999c0 16.667 4.16699 30 12.5 40s22.166 15 41.499 15h8v-33h-7c-5.33301 0 -9.33301 -1.16699 -12 -3.5s-4 -7.16602 -4 -14.499v-31h33v-103h-72zM165.001 644.999l0.000976562 129.999c0 16.667 4.16699 30 12.5 40s22.166 15 41.499 15h8
v-33h-7c-5.33301 0 -9.33301 -1.16699 -12 -3.5s-4 -7.16602 -4 -14.499v-31h33v-103h-72z" />
    <glyph glyph-name="quotedblright" unicode="&#x201d;" horiz-adv-x="268" 
d="M41 638l-0.000976562 33h6c11.333 0 17 6 17 18v31h-33v103h72v-129c0 -17.333 -4.16699 -31 -12.5 -41s-22.166 -15 -41.499 -15h-8zM174.999 638l-0.000976562 33h6c11.333 0 17 6 17 18v31h-33v103h72v-129c0 -17.333 -4.16699 -31 -12.5 -41s-22.166 -15 -41.499 -15
h-8z" />
    <glyph glyph-name="quotedblbase" unicode="&#x201e;" horiz-adv-x="276" 
d="M43 -60l-0.000976562 33h6c11.333 0 17 6 17 18v31h-33v103h72v-129c0 -17.333 -4.16699 -31 -12.5 -41s-22.166 -15 -41.499 -15h-8zM180.999 -60l-0.000976562 33h6c11.333 0 17 6 17 18v31h-33v103h72v-129c0 -17.333 -4.16699 -31 -12.5 -41s-22.166 -15 -41.499 -15
h-8z" />
    <glyph glyph-name="dagger" unicode="&#x2020;" horiz-adv-x="388" 
d="M166 195l8 416l-143 -6v56l141 -7l-7 169h57l-7 -169l142 8v-57l-144 6l7 -416h-54z" />
    <glyph glyph-name="daggerdbl" unicode="&#x2021;" horiz-adv-x="388" 
d="M165 0l7 168l-141 -6v55l143 -7l-14 202l14 199l-143 -6v56l141 -7l-7 169h57l-7 -169l142 8v-57l-144 6l14 -199l-14 -202l144 7v-57l-142 8l7 -168h-57z" />
    <glyph glyph-name="bullet" unicode="&#x2022;" horiz-adv-x="209" 
d="M105 386c-23.333 0 -41.5 8.16699 -54.5 24.5s-19.5 36.166 -19.5 59.499s6.5 42.833 19.5 58.5s31.167 23.5 54.5 23.5c22.667 0 40.5 -7.83301 53.5 -23.5s19.5 -35.167 19.5 -58.5s-6.5 -43.166 -19.5 -59.499s-30.833 -24.5 -53.5 -24.5z" />
    <glyph glyph-name="ellipsis" unicode="&#x2026;" horiz-adv-x="665" 
d="M31 0v125h71v-125h-71zM297 0v125h71v-125h-71zM563 0v125h71v-125h-71z" />
    <glyph glyph-name="perthousand" unicode="&#x2030;" horiz-adv-x="612" 
d="M62 768c0 46.667 22.333 70 67 70c45.333 0 68 -23.333 68 -70v-281c0 -46.667 -22.667 -70 -68 -70c-44.667 0 -67 23.333 -67 70v281zM151 769c0 15.333 -7.33301 23 -22 23c-14 0 -21 -7.66699 -21 -23v-283c0 -15.333 7 -23 21 -23c14.667 0 22 7.66699 22 23v283z
M31 0l362 823h51l-361 -823h-52zM282 336c0 46.667 22.333 70 67 70c45.333 0 68 -23.333 68 -70v-281c0 -46.667 -22.667 -70 -68 -70c-44.667 0 -67 23.333 -67 70v281zM371 337c0 15.333 -7.33301 23 -22 23c-14 0 -21 -7.66699 -21 -23v-283c0 -15.333 7 -23 21 -23
c14.667 0 22 7.66699 22 23v283zM447 336c0 46.667 22.333 70 67 70c45.333 0 68 -23.333 68 -70v-281c0 -46.667 -22.667 -70 -68 -70c-44.667 0 -67 23.333 -67 70v281zM536 337c0 15.333 -7.33301 23 -22 23c-14 0 -21 -7.66699 -21 -23v-283c0 -15.333 7 -23 21 -23
c14.667 0 22 7.66699 22 23v283z" />
    <glyph glyph-name="guilsinglleft" unicode="&#x2039;" horiz-adv-x="195" 
d="M19 296v75l157 112v-65l-120 -84l120 -88v-68z" />
    <glyph glyph-name="guilsinglright" unicode="&#x203a;" horiz-adv-x="195" 
d="M19 178v68l120 88l-120 84v65l157 -112v-75z" />
    <glyph glyph-name="fraction" unicode="&#x2044;" horiz-adv-x="161" 
d="M-126 0l362 823h51l-361 -823h-52z" />
    <glyph glyph-name="zerosuperior" unicode="&#x2070;" horiz-adv-x="195" 
d="M30 768c0 46.667 22.333 70 67 70c45.333 0 68 -23.333 68 -70v-281c0 -46.667 -22.667 -70 -68 -70c-44.667 0 -67 23.333 -67 70v281zM119 769c0 15.333 -7.33301 23 -22 23c-14 0 -21 -7.66699 -21 -23v-283c0 -15.333 7 -23 21 -23c14.667 0 22 7.66699 22 23v283z
" />
    <glyph glyph-name="foursuperior" unicode="&#x2074;" horiz-adv-x="190" 
d="M107 547c0 40.667 0.332031 73.667 0.999023 99s1.33398 48.333 2.00098 69l-20 -69l-30 -99h47zM106.999 422v82h-88v40l88 289h43v-286h20v-43h-20v-82h-43z" />
    <glyph glyph-name="fivesuperior" unicode="&#x2075;" horiz-adv-x="188" 
d="M115 620c0 14.667 -7 22 -21 22s-22 -7.33301 -24 -22l-40 1l5 212h122v-46h-80l-5 -121c4 5.33301 9.16699 9.5 15.5 12.5s14.5 4.5 24.5 4.5c15.333 0 27 -4.83301 35 -14.5s12 -26.167 12 -49.5v-133c0 -46 -21.333 -69 -64 -69c-43.333 0 -65 23 -65 69v87h45v-86
c0 -16 6.66699 -24 20 -24s20 8 20 24v133z" />
    <glyph glyph-name="sixsuperior" unicode="&#x2076;" horiz-adv-x="190" 
d="M115 600c0 11.333 -1.16797 20.166 -3.50098 26.499s-7.83301 9.5 -16.5 9.5c-11.333 0 -17.666 -5.66699 -18.999 -17v-132c0 -7.33301 1.33301 -13.166 4 -17.499s7.66699 -6.5 15 -6.5c13.333 0 20 8 20 24v113zM160.999 487c0 -21.333 -5.5 -38.333 -16.5 -51
s-27.5 -19 -49.5 -19s-38.5 6.33301 -49.5 19s-16.5 29.667 -16.5 51v281c0 21.333 5.5 38.333 16.5 51s27.5 19 49.5 19s38.167 -6.33301 48.5 -19s15.5 -29.667 15.5 -51v-71h-45v71c0 15.333 -6.33301 23 -19 23s-19 -7.66699 -19 -23v-104
c3.33301 4 7.83301 7.66699 13.5 11s13.167 5 22.5 5c17.333 0 29.833 -4.83301 37.5 -14.5s11.5 -26.167 11.5 -49.5v-129z" />
    <glyph glyph-name="sevensuperior" unicode="&#x2077;" horiz-adv-x="175" 
d="M46 422c0 57.333 2.83301 107.668 8.5 151.001s12 80 19 110s14 53.5 21 70.5s12.167 28.167 15.5 33.5h-89v46h132v-43c-22 -49.333 -37.667 -103.833 -47 -163.5s-14 -127.834 -14 -204.501h-46z" />
    <glyph glyph-name="eightsuperior" unicode="&#x2078;" horiz-adv-x="188" 
d="M159 486c0 -46 -22.002 -69 -66.002 -69c-43.333 0 -65 23 -65 69v100c0 13.333 2.5 24 7.5 32s11.833 13.667 20.5 17c-7.33301 3.33301 -13.166 8.5 -17.499 15.5s-6.5 16.833 -6.5 29.5v87c0 22 4.83301 39.333 14.5 52s25.167 19 46.5 19
c22 0 37.833 -6.33301 47.5 -19s14.5 -30 14.5 -52v-87c0 -12.667 -2.16699 -22.5 -6.5 -29.5s-10.166 -12.167 -17.499 -15.5c8 -3.33301 14.667 -9 20 -17s8 -18.667 8 -32v-100zM112.998 589c0 14 -6.66699 21 -20 21c-12.667 0 -19 -7 -19 -21v-102
c0 -16 6.33301 -24 19 -24c13.333 0 20 8 20 24v102zM112.998 767c0 16 -6.66699 24 -20 24c-12.667 0 -19 -8 -19 -24v-93c0 -14 6.33301 -21 19 -21c13.333 0 20 7 20 21v93z" />
    <glyph glyph-name="ninesuperior" unicode="&#x2079;" horiz-adv-x="190" 
d="M113 768c0 15.333 -6.33301 23 -19 23c-13.333 0 -20 -7.66699 -20 -23v-118c0 -15.333 6.66699 -23 20 -23c6 0 10.5 1.66699 13.5 5s4.83301 7.33301 5.5 12v124zM113 598c-3.33301 -4.66699 -7.66797 -8.66699 -13.001 -12s-12.666 -5 -21.999 -5
c-17.333 0 -29.833 5 -37.5 15s-11.5 26.667 -11.5 50v122c0 22 5.33301 39.167 16 51.5s27 18.5 49 18.5s38.5 -6.16699 49.5 -18.5s16.5 -29.5 16.5 -51.5v-281c0 -21.333 -5.5 -38.333 -16.5 -51s-27.5 -19 -49.5 -19c-20.667 0 -36.667 6.33301 -48 19
s-17 29.667 -17 51v71h45v-71c0 -16 6.66699 -24 20 -24c12.667 0 19 8 19 24v111z" />
    <glyph glyph-name="zeroinferior" unicode="&#x2080;" horiz-adv-x="195" 
d="M30 336c0 46.667 22.333 70 67 70c45.333 0 68 -23.333 68 -70v-281c0 -46.667 -22.667 -70 -68 -70c-44.667 0 -67 23.333 -67 70v281zM119 337c0 15.333 -7.33301 23 -22 23c-14 0 -21 -7.66699 -21 -23v-283c0 -15.333 7 -23 21 -23c14.667 0 22 7.66699 22 23v283z
" />
    <glyph glyph-name="oneinferior" unicode="&#x2081;" horiz-adv-x="125" 
d="M45 -10v336h-22v45h10c11.333 0 17 6.33301 17 19v11h41v-411h-46z" />
    <glyph glyph-name="twoinferior" unicode="&#x2082;" horiz-adv-x="185" 
d="M27 -10v75c0 12 0.5 22.667 1.5 32s2.83301 18.333 5.5 27s6.66699 17.5 12 26.5s12 19.5 20 31.5l23 35c6 9.33301 10.667 17.833 14 25.5s5.66602 15.167 6.99902 22.5s2 16 2 26v44c0 16 -6.66699 24 -20 24c-12.667 0 -19 -8 -19 -24v-72h-46v71
c0 25.333 5.33301 43.666 16 54.999s27 17 49 17c44 0 66 -24 66 -72v-48c0 -20.667 -3.5 -40 -10.5 -58s-17.833 -37 -32.5 -57c-9.33301 -13.333 -16.666 -24.5 -21.999 -33.5s-9.5 -17.333 -12.5 -25s-4.83301 -15.167 -5.5 -22.5s-1 -15.666 -1 -24.999v-29h84v-46h-131
z" />
    <glyph glyph-name="threeinferior" unicode="&#x2083;" horiz-adv-x="186" 
d="M113 154c0 16 -6.66699 24.001 -20 24.001h-21v43h23c7.33301 0 12 2.16699 14 6.5s3 10.166 3 17.499v90c0 16 -6.33301 24 -19 24s-19 -8 -19 -24v-73h-46v73c0 25.333 5.33301 43.5 16 54.5s27 16.5 49 16.5s38.167 -5.66699 48.5 -17s15.5 -29.666 15.5 -54.999v-91
c0 -21.333 -9 -36 -27 -44c9.33301 -2.66699 16.333 -7.33398 21 -14.001s7 -16.667 7 -30v-100c0 -21.333 -5.33301 -38.333 -16 -51s-27 -19 -49 -19s-38.5 6.33301 -49.5 19s-16.5 29.667 -16.5 51v81h47v-81c0 -16 6.33301 -24 19 -24c13.333 0 20 8 20 24v99z" />
    <glyph glyph-name="fourinferior" unicode="&#x2084;" horiz-adv-x="190" 
d="M107 115c0 40.667 0.332031 73.667 0.999023 99s1.33398 48.333 2.00098 69l-20 -69l-30 -99h47zM106.999 -10v82h-88v40l88 289h43v-286h20v-43h-20v-82h-43z" />
    <glyph glyph-name="fiveinferior" unicode="&#x2085;" horiz-adv-x="188" 
d="M115 188c0 14.667 -7 22 -21 22s-22 -7.33301 -24 -22l-40 1l5 212h122v-46h-80l-5 -121c4 5.33301 9.16699 9.5 15.5 12.5s14.5 4.5 24.5 4.5c15.333 0 27 -4.83301 35 -14.5s12 -26.167 12 -49.5v-133c0 -46 -21.333 -69 -64 -69c-43.333 0 -65 23 -65 69v87h45v-86
c0 -16 6.66699 -24 20 -24s20 8 20 24v133z" />
    <glyph glyph-name="sixinferior" unicode="&#x2086;" horiz-adv-x="190" 
d="M115 168c0 11.333 -1.16797 20.166 -3.50098 26.499s-7.83301 9.5 -16.5 9.5c-11.333 0 -17.666 -5.66699 -18.999 -17v-132c0 -7.33301 1.33301 -13.166 4 -17.499s7.66699 -6.5 15 -6.5c13.333 0 20 8 20 24v113zM160.999 55c0 -21.333 -5.5 -38.333 -16.5 -51
s-27.5 -19 -49.5 -19s-38.5 6.33301 -49.5 19s-16.5 29.667 -16.5 51v281c0 21.333 5.5 38.333 16.5 51s27.5 19 49.5 19s38.167 -6.33301 48.5 -19s15.5 -29.667 15.5 -51v-71h-45v71c0 15.333 -6.33301 23 -19 23s-19 -7.66699 -19 -23v-104
c3.33301 4 7.83301 7.66699 13.5 11s13.167 5 22.5 5c17.333 0 29.833 -4.83301 37.5 -14.5s11.5 -26.167 11.5 -49.5v-129z" />
    <glyph glyph-name="seveninferior" unicode="&#x2087;" horiz-adv-x="175" 
d="M46 -10c0 57.333 2.83301 107.668 8.5 151.001s12 80 19 110s14 53.5 21 70.5s12.167 28.167 15.5 33.5h-89v46h132v-43c-22 -49.333 -37.667 -103.833 -47 -163.5s-14 -127.834 -14 -204.501h-46z" />
    <glyph glyph-name="eightinferior" unicode="&#x2088;" horiz-adv-x="188" 
d="M159 54c0 -46 -22.002 -69 -66.002 -69c-43.333 0 -65 23 -65 69v100c0 13.333 2.5 24 7.5 32s11.833 13.667 20.5 17c-7.33301 3.33301 -13.166 8.5 -17.499 15.5s-6.5 16.833 -6.5 29.5v87c0 22 4.83301 39.333 14.5 52s25.167 19 46.5 19
c22 0 37.833 -6.33301 47.5 -19s14.5 -30 14.5 -52v-87c0 -12.667 -2.16699 -22.5 -6.5 -29.5s-10.166 -12.167 -17.499 -15.5c8 -3.33301 14.667 -9 20 -17s8 -18.667 8 -32v-100zM112.998 157c0 14 -6.66699 21 -20 21c-12.667 0 -19 -7 -19 -21v-102
c0 -16 6.33301 -24 19 -24c13.333 0 20 8 20 24v102zM112.998 335c0 16 -6.66699 24 -20 24c-12.667 0 -19 -8 -19 -24v-93c0 -14 6.33301 -21 19 -21c13.333 0 20 7 20 21v93z" />
    <glyph glyph-name="nineinferior" unicode="&#x2089;" horiz-adv-x="190" 
d="M113 336c0 15.333 -6.33301 23 -19 23c-13.333 0 -20 -7.66699 -20 -23v-118c0 -15.333 6.66699 -23 20 -23c6 0 10.5 1.66699 13.5 5s4.83301 7.33301 5.5 12v124zM113 166c-3.33301 -4.66699 -7.66797 -8.66699 -13.001 -12s-12.666 -5 -21.999 -5
c-17.333 0 -29.833 5 -37.5 15s-11.5 26.667 -11.5 50v122c0 22 5.33301 39.167 16 51.5s27 18.5 49 18.5s38.5 -6.16699 49.5 -18.5s16.5 -29.5 16.5 -51.5v-281c0 -21.333 -5.5 -38.333 -16.5 -51s-27.5 -19 -49.5 -19c-20.667 0 -36.667 6.33301 -48 19
s-17 29.667 -17 51v71h45v-71c0 -16 6.66699 -24 20 -24c12.667 0 19 8 19 24v111z" />
    <glyph glyph-name="Euro" unicode="&#x20ac;" horiz-adv-x="342" 
d="M247 208h74.999v-77c0 -46 -10.5 -80.833 -31.5 -104.5s-54.5 -35.5 -100.5 -35.5s-79.833 11.833 -101.5 35.5s-32.5 58.5 -32.5 104.5v165h-46l9 58h37v129h-46l9 59h37v130c0 26.667 2.83301 50.167 8.5 70.5s15.334 37 29.001 50s31.5 22.833 53.5 29.5
s49.667 10 83 10c19.333 0 37.666 -0.5 54.999 -1.5s33 -2.16699 47 -3.5l-12 -77c-30 4 -59.333 6 -88 6c-20.667 0 -37.5 -1.83301 -50.5 -5.5s-23.167 -9 -30.5 -16s-12.333 -15.667 -15 -26s-4 -22.5 -4 -36.5v-130h156l-10 -59h-146v-129h127l-10 -58h-117v-167
c0 -17.333 5.33301 -32.333 16 -45s24.667 -19 42 -19c22.667 0 37.834 6.83301 45.501 20.5s11.5 34.167 11.5 61.5v61z" />
    <glyph glyph-name="uni2117" unicode="&#x2117;" horiz-adv-x="516" 
d="M485 221c0 -41.333 -4.5 -76.666 -13.5 -105.999s-22.667 -53.166 -41 -71.499s-41.833 -31.666 -70.5 -39.999s-62.667 -12.5 -102 -12.5s-73.333 4.16699 -102 12.5s-52.167 21.666 -70.5 39.999s-32 42.166 -41 71.499s-13.5 64.666 -13.5 105.999v381
c0 41.333 4.5 76.666 13.5 105.999s22.667 53.166 41 71.499s41.833 31.666 70.5 39.999s62.667 12.5 102 12.5s73.333 -4.16699 102 -12.5s52.167 -21.666 70.5 -39.999s32 -42.166 41 -71.499s13.5 -64.666 13.5 -105.999v-381zM433 607
c0 32.667 -3.16699 60.167 -9.5 82.5s-16.333 40.333 -30 54s-31.667 23.5 -54 29.5s-49.5 9 -81.5 9s-59.167 -3 -81.5 -9s-40.5 -15.833 -54.5 -29.5s-24 -31.667 -30 -54s-9 -49.833 -9 -82.5v-393c0 -31.333 3.16699 -58 9.5 -80s16.5 -39.833 30.5 -53.5
s32 -23.667 54 -30s49 -9.5 81 -9.5s59.167 3.16699 81.5 9.5s40.333 16.333 54 30s23.667 31.5 30 53.5s9.5 48.667 9.5 80v393zM298 582c0 15.333 -2.83203 26.333 -8.49902 33s-15.834 10 -30.501 10h-32v-175h33c25.333 0 38 14.667 38 44v88zM178.001 157
l-0.000976562 518.001h81c58.667 0 88 -31 88 -93v-86c0 -32.667 -7.16699 -56.334 -21.5 -71.001s-36.166 -22 -65.499 -22h-33v-246h-49z" />
    <glyph glyph-name="trademark" unicode="&#x2122;" horiz-adv-x="484" 
d="M81 443v343h-54v37h156v-37h-54v-343h-48zM403 443v128.002v74.5c0 24.333 0.333008 48.833 1 73.5l-51 -276h-42l-52 276c0.666992 -24.667 1.16699 -49.334 1.5 -74.001s0.5 -49.334 0.5 -74.001v-128h-44v380h63l52 -297l50 297h64v-380h-43z" />
    <glyph glyph-name="onethird" unicode="&#x2153;" horiz-adv-x="480" 
d="M97 422v336h-22v45h10c11.333 0 17 6.33301 17 19v11h41v-411h-46zM31 0l362 823h51l-361 -823h-52zM395 154c0 16 -6.66699 24.001 -20 24.001h-21v43h23c7.33301 0 12 2.16699 14 6.5s3 10.166 3 17.499v90c0 16 -6.33301 24 -19 24s-19 -8 -19 -24v-73h-46v73
c0 25.333 5.33301 43.5 16 54.5s27 16.5 49 16.5s38.167 -5.66699 48.5 -17s15.5 -29.666 15.5 -54.999v-91c0 -21.333 -9 -36 -27 -44c9.33301 -2.66699 16.333 -7.33398 21 -14.001s7 -16.667 7 -30v-100c0 -21.333 -5.33301 -38.333 -16 -51s-27 -19 -49 -19
s-38.5 6.33301 -49.5 19s-16.5 29.667 -16.5 51v81h47v-81c0 -16 6.33301 -24 19 -24c13.333 0 20 8 20 24v99z" />
    <glyph glyph-name="twothirds" unicode="&#x2154;" horiz-adv-x="480" 
d="M39 422v75c0 12 0.5 22.667 1.5 32s2.83301 18.333 5.5 27s6.66699 17.5 12 26.5s12 19.5 20 31.5l23 35c6 9.33301 10.667 17.833 14 25.5s5.66602 15.167 6.99902 22.5s2 16 2 26v44c0 16 -6.66699 24 -20 24c-12.667 0 -19 -8 -19 -24v-72h-46v71
c0 25.333 5.33301 43.666 16 54.999s27 17 49 17c44 0 66 -24 66 -72v-48c0 -20.667 -3.5 -40 -10.5 -58s-17.833 -37 -32.5 -57c-9.33301 -13.333 -16.666 -24.5 -21.999 -33.5s-9.5 -17.333 -12.5 -25s-4.83301 -15.167 -5.5 -22.5s-1 -15.666 -1 -24.999v-29h84v-46h-131
zM31 0l362 823h51l-361 -823h-52zM385 154c0 16 -6.66699 24.001 -20 24.001h-21v43h23c7.33301 0 12 2.16699 14 6.5s3 10.166 3 17.499v90c0 16 -6.33301 24 -19 24s-19 -8 -19 -24v-73h-46v73c0 25.333 5.33301 43.5 16 54.5s27 16.5 49 16.5s38.167 -5.66699 48.5 -17
s15.5 -29.666 15.5 -54.999v-91c0 -21.333 -9 -36 -27 -44c9.33301 -2.66699 16.333 -7.33398 21 -14.001s7 -16.667 7 -30v-100c0 -21.333 -5.33301 -38.333 -16 -51s-27 -19 -49 -19s-38.5 6.33301 -49.5 19s-16.5 29.667 -16.5 51v81h47v-81c0 -16 6.33301 -24 19 -24
c13.333 0 20 8 20 24v99z" />
    <glyph glyph-name="oneeighth" unicode="&#x215b;" horiz-adv-x="480" 
d="M97 422v336h-22v45h10c11.333 0 17 6.33301 17 19v11h41v-411h-46zM31 0l362 823h51l-361 -823h-52zM441 54c0 -46 -22.002 -69 -66.002 -69c-43.333 0 -65 23 -65 69v100c0 13.333 2.5 24 7.5 32s11.833 13.667 20.5 17c-7.33301 3.33301 -13.166 8.5 -17.499 15.5
s-6.5 16.833 -6.5 29.5v87c0 22 4.83301 39.333 14.5 52s25.167 19 46.5 19c22 0 37.833 -6.33301 47.5 -19s14.5 -30 14.5 -52v-87c0 -12.667 -2.16699 -22.5 -6.5 -29.5s-10.166 -12.167 -17.499 -15.5c8 -3.33301 14.667 -9 20 -17s8 -18.667 8 -32v-100zM394.998 157
c0 14 -6.66699 21 -20 21c-12.667 0 -19 -7 -19 -21v-102c0 -16 6.33301 -24 19 -24c13.333 0 20 8 20 24v102zM394.998 335c0 16 -6.66699 24 -20 24c-12.667 0 -19 -8 -19 -24v-93c0 -14 6.33301 -21 19 -21c13.333 0 20 7 20 21v93z" />
    <glyph glyph-name="threeeighths" unicode="&#x215c;" horiz-adv-x="480" 
d="M134 586c0 16 -6.66699 24.001 -20 24.001h-21v43h23c7.33301 0 12 2.16699 14 6.5s3 10.166 3 17.499v90c0 16 -6.33301 24 -19 24s-19 -8 -19 -24v-73h-46v73c0 25.333 5.33301 43.5 16 54.5s27 16.5 49 16.5s38.167 -5.66699 48.5 -17s15.5 -29.666 15.5 -54.999v-91
c0 -21.333 -9 -36 -27 -44c9.33301 -2.66699 16.333 -7.33398 21 -14.001s7 -16.667 7 -30v-100c0 -21.333 -5.33301 -38.333 -16 -51s-27 -19 -49 -19s-38.5 6.33301 -49.5 19s-16.5 29.667 -16.5 51v81h47v-81c0 -16 6.33301 -24 19 -24c13.333 0 20 8 20 24v99z
M31 0.000976562l362 823h51l-361 -823h-52zM431 54.001c0 -46 -22.002 -69 -66.002 -69c-43.333 0 -65 23 -65 69v100c0 13.333 2.5 24 7.5 32s11.833 13.667 20.5 17c-7.33301 3.33301 -13.166 8.5 -17.499 15.5s-6.5 16.833 -6.5 29.5v87c0 22 4.83301 39.333 14.5 52
s25.167 19 46.5 19c22 0 37.833 -6.33301 47.5 -19s14.5 -30 14.5 -52v-87c0 -12.667 -2.16699 -22.5 -6.5 -29.5s-10.166 -12.167 -17.499 -15.5c8 -3.33301 14.667 -9 20 -17s8 -18.667 8 -32v-100zM384.998 157.001c0 14 -6.66699 21 -20 21c-12.667 0 -19 -7 -19 -21
v-102c0 -16 6.33301 -24 19 -24c13.333 0 20 8 20 24v102zM384.998 335.001c0 16 -6.66699 24 -20 24c-12.667 0 -19 -8 -19 -24v-93c0 -14 6.33301 -21 19 -21c13.333 0 20 7 20 21v93z" />
    <glyph glyph-name="fiveeighths" unicode="&#x215d;" horiz-adv-x="480" 
d="M134 620c0 14.667 -7 22 -21 22s-22 -7.33301 -24 -22l-40 1l5 212h122v-46h-80l-5 -121c4 5.33301 9.16699 9.5 15.5 12.5s14.5 4.5 24.5 4.5c15.333 0 27 -4.83301 35 -14.5s12 -26.167 12 -49.5v-133c0 -46 -21.333 -69 -64 -69c-43.333 0 -65 23 -65 69v87h45v-86
c0 -16 6.66699 -24 20 -24s20 8 20 24v133zM31 0l362 823h51l-361 -823h-52zM431 54c0 -46 -22.002 -69 -66.002 -69c-43.333 0 -65 23 -65 69v100c0 13.333 2.5 24 7.5 32s11.833 13.667 20.5 17c-7.33301 3.33301 -13.166 8.5 -17.499 15.5s-6.5 16.833 -6.5 29.5v87
c0 22 4.83301 39.333 14.5 52s25.167 19 46.5 19c22 0 37.833 -6.33301 47.5 -19s14.5 -30 14.5 -52v-87c0 -12.667 -2.16699 -22.5 -6.5 -29.5s-10.166 -12.167 -17.499 -15.5c8 -3.33301 14.667 -9 20 -17s8 -18.667 8 -32v-100zM384.998 157c0 14 -6.66699 21 -20 21
c-12.667 0 -19 -7 -19 -21v-102c0 -16 6.33301 -24 19 -24c13.333 0 20 8 20 24v102zM384.998 335c0 16 -6.66699 24 -20 24c-12.667 0 -19 -8 -19 -24v-93c0 -14 6.33301 -21 19 -21c13.333 0 20 7 20 21v93z" />
    <glyph glyph-name="seveneighths" unicode="&#x215e;" horiz-adv-x="480" 
d="M98 422c0 57.333 2.83301 107.668 8.5 151.001s12 80 19 110s14 53.5 21 70.5s12.167 28.167 15.5 33.5h-89v46h132v-43c-22 -49.333 -37.667 -103.833 -47 -163.5s-14 -127.834 -14 -204.501h-46zM31 0.00195312l362 823h51l-361 -823h-52zM431 54.002
c0 -46 -22.002 -69 -66.002 -69c-43.333 0 -65 23 -65 69v100c0 13.333 2.5 24 7.5 32s11.833 13.667 20.5 17c-7.33301 3.33301 -13.166 8.5 -17.499 15.5s-6.5 16.833 -6.5 29.5v87c0 22 4.83301 39.333 14.5 52s25.167 19 46.5 19c22 0 37.833 -6.33301 47.5 -19
s14.5 -30 14.5 -52v-87c0 -12.667 -2.16699 -22.5 -6.5 -29.5s-10.166 -12.167 -17.499 -15.5c8 -3.33301 14.667 -9 20 -17s8 -18.667 8 -32v-100zM384.998 157.002c0 14 -6.66699 21 -20 21c-12.667 0 -19 -7 -19 -21v-102c0 -16 6.33301 -24 19 -24c13.333 0 20 8 20 24
v102zM384.998 335.002c0 16 -6.66699 24 -20 24c-12.667 0 -19 -8 -19 -24v-93c0 -14 6.33301 -21 19 -21c13.333 0 20 7 20 21v93z" />
    <glyph glyph-name="partialdiff" unicode="&#x2202;" horiz-adv-x="426" 
d="M178 822c10.667 6 31.667 9.00098 63 9.00098c38.667 0 69.334 -11.333 92.001 -34s39.5 -50.667 50.5 -84s18 -68.833 21 -106.5s4.5 -71.5 4.5 -101.5c0 -32 -1.33301 -66.833 -4 -104.5s-7.33398 -75.5 -14.001 -113.5s-15.834 -74.833 -27.501 -110.5
s-26.667 -67.167 -45 -94.5s-40.333 -49.333 -66 -66s-55.834 -25 -90.501 -25c-26 0 -48.333 5.66699 -67 17s-33.667 27 -45 47s-19.666 43.333 -24.999 70s-8 55 -8 85c0 36 4 70.167 12 102.5s20.333 60.833 37 85.5s37.334 44.167 62.001 58.5s54 21.5 88 21.5
c25.333 0 49 -7 71 -21s39.667 -38 53 -72c2.66699 25.333 4.33398 48.166 5.00098 68.499s1 39.166 1 56.499c0 24.667 -1.16699 51.334 -3.5 80.001s-7.5 55.167 -15.5 79.5s-19.667 44.5 -35 60.5s-36.333 24 -63 24c-10 0 -19.333 -0.5 -28 -1.5
s-16.334 -3.16699 -23.001 -6.5v76zM331 319.001c-11.333 36 -26.832 61.5 -46.499 76.5s-41.167 22.5 -64.5 22.5c-24 0 -44.833 -5 -62.5 -15s-32.334 -24 -44.001 -42s-20.334 -39.167 -26.001 -63.5s-8.5 -50.833 -8.5 -79.5c0 -44.667 7.5 -81.167 22.5 -109.5
s38.833 -42.5 71.5 -42.5c24.667 0 46 7 64 21s33.167 32.833 45.5 56.5s22.333 50.667 30 81s13.834 61.833 18.501 94.5z" />
    <glyph glyph-name="product" unicode="&#x220f;" horiz-adv-x="436" 
d="M331 -139v904h-228v-904h-66v962h362v-962h-68z" />
    <glyph glyph-name="summation" unicode="&#x2211;" horiz-adv-x="406" 
d="M21 -139v55l192 425l-192 425v57h363v-77h-279l177 -405l-177 -406h279v-74h-363z" />
    <glyph glyph-name="minus" unicode="&#x2212;" horiz-adv-x="462" 
d="M37 391v57h389v-57h-389z" />
    <glyph glyph-name="radical" unicode="&#x221a;" horiz-adv-x="471" 
d="M173 0l-69 297h-82v53h133l55 -267l186 740h63l-211 -823h-75z" />
    <glyph glyph-name="infinity" unicode="&#x221e;" horiz-adv-x="607" 
d="M303 327c-7.33301 -36.667 -21.5 -61 -42.5 -73s-48.833 -18 -83.5 -18c-20 0 -38.833 1.16699 -56.5 3.5s-33.167 8.33301 -46.5 18s-23.833 24.667 -31.5 45s-11.5 48.5 -11.5 84.5c0 35.333 3.83301 63.166 11.5 83.499s18.167 35.5 31.5 45.5
s28.833 16.167 46.5 18.5s36.5 3.5 56.5 3.5c34.667 0 62.5 -6.33301 83.5 -19s35.167 -37 42.5 -73c7.33301 36 21.666 60.333 42.999 73s49 19 83 19c19.333 0 37.833 -1.16699 55.5 -3.5s33.167 -8.5 46.5 -18.5s24 -25.167 32 -45.5s12 -48.166 12 -83.499
c0 -36 -4 -64.167 -12 -84.5s-18.667 -35.333 -32 -45s-28.833 -15.667 -46.5 -18s-36.167 -3.5 -55.5 -3.5c-34 0 -61.667 6 -83 18s-35.666 36.333 -42.999 73zM526 387c0 21.333 -2.66602 37.834 -7.99902 49.501s-12.5 20.334 -21.5 26.001s-19.333 9.16699 -31 10.5
s-24.167 2 -37.5 2c-30 0 -53 -5.66699 -69 -17s-24 -35 -24 -71c0 -18.667 2 -33.834 6 -45.501s10 -20.834 18 -27.501s17.667 -11.167 29 -13.5s24.666 -3.5 39.999 -3.5c14 0 27 0.833008 39 2.5s22.333 5.66699 31 12s15.5 15.5 20.5 27.5s7.5 28 7.5 48z
M272.001 387.001c0 36 -7.83301 59.668 -23.5 71.001s-39.167 17 -70.5 17c-13.333 0 -25.833 -0.666992 -37.5 -2s-21.834 -4.83301 -30.501 -10.5s-15.667 -14.334 -21 -26.001s-8 -28.167 -8 -49.5s2.66699 -38 8 -50s12.333 -21 21 -27s18.834 -9.66699 30.501 -11
s24.167 -2 37.5 -2s25.833 1 37.5 3s21.667 6.16699 30 12.5s14.833 15.5 19.5 27.5s7 27.667 7 47z" />
    <glyph glyph-name="integral" unicode="&#x222b;" horiz-adv-x="289" 
d="M15 -139v58h37c19.333 0 33.5 5.5 42.5 16.5s13.5 28.833 13.5 53.5v839c0 42.667 10.167 74.667 30.5 96s52.5 32 96.5 32h39v-58h-38c-36.667 0 -55 -23.667 -55 -71v-840c0 -42 -10.167 -73.5 -30.5 -94.5s-52.5 -31.5 -96.5 -31.5h-39z" />
    <glyph glyph-name="approxequal" unicode="&#x2248;" horiz-adv-x="463" 
d="M427 328c-14 -13.333 -29.498 -23.332 -46.498 -29.999s-37.5 -10 -61.5 -10c-16.667 0 -32.667 2.66699 -48 8s-30.333 11 -45 17s-29.334 11.667 -44.001 17s-29.334 8 -44.001 8c-18 0 -35.333 -3.83301 -52 -11.5s-33 -21.167 -49 -40.5v69
c10 11.333 23 20.833 39 28.5s35.667 11.5 59 11.5c18.667 0 36.167 -2.66699 52.5 -8s32 -11 47 -17l43.5 -17c14 -5.33301 28.333 -8 43 -8c22 0 41.333 4.16699 58 12.5s32.667 21.166 48 38.499v-68zM427.002 487.001c-14 -13.333 -29.498 -23.332 -46.498 -29.999
s-37.5 -10 -61.5 -10c-16.667 0 -32.667 2.66699 -48 8s-30.333 11 -45 17s-29.334 11.667 -44.001 17s-29.334 8 -44.001 8c-18 0 -35.333 -3.83301 -52 -11.5s-33 -21.167 -49 -40.5v69c10 11.333 23 20.833 39 28.5s35.667 11.5 59 11.5
c18.667 0 36.167 -2.66699 52.5 -8s32 -11 47 -17l43.5 -17c14 -5.33301 28.333 -8 43 -8c22 0 41.333 4.16699 58 12.5s32.667 21.166 48 38.499v-68z" />
    <glyph glyph-name="notequal" unicode="&#x2260;" horiz-adv-x="462" 
d="M24 0l128 297h-115v58h140l56 129h-196v58h221l122 281h57l-122 -281h111v-58h-136l-55 -129h191v-58h-216l-128 -297h-58z" />
    <glyph glyph-name="lessequal" unicode="&#x2264;" horiz-adv-x="462" 
d="M37 384v70l389 128v-58l-331 -103l331 -109v-57zM37 162v57h389v-57h-389z" />
    <glyph glyph-name="greaterequal" unicode="&#x2265;" horiz-adv-x="462" 
d="M37 255v57l331 109l-331 103v58l389 -128v-70zM37 162v57h389v-57h-389z" />
    <glyph glyph-name="lozenge" unicode="&#x25ca;" horiz-adv-x="393" 
d="M158 0l-127 412l127 411h73l131 -411l-131 -412h-73zM300 412l-103 347l-105 -347l101 -349z" />
    <glyph glyph-name="fi" unicode="&#xfb01;" horiz-adv-x="338" 
d="M40 0l-0.000976562 558h-30v61h30v86c0 38.667 6.83301 68.834 20.5 90.501s38.5 32.5 74.5 32.5c8 0 16 -0.5 24 -1.5s15 -2.5 21 -4.5v-59c-7.33301 2 -15.666 3 -24.999 3c-16 0 -27.833 -4.83301 -35.5 -14.5s-11.5 -25.834 -11.5 -48.501v-84h70v-61h-70v-558h-68z
M229.999 698v125h69v-125h-69zM229.999 0v619h69v-619h-69z" />
    <glyph glyph-name="fl" unicode="&#xfb02;" horiz-adv-x="334" 
d="M40 0l-0.000976562 558h-30v61h30v86c0 38.667 6.83301 68.834 20.5 90.501s38.5 32.5 74.5 32.5c8 0 16 -0.5 24 -1.5s15 -2.5 21 -4.5v-59c-7.33301 2 -15.666 3 -24.999 3c-16 0 -27.833 -4.83301 -35.5 -14.5s-11.5 -25.834 -11.5 -48.501v-84h70v-61h-70v-558h-68z
M227.999 0v823h69v-823h-69z" />
    <glyph glyph-name="nonmarkingreturn" horiz-adv-x="136" 
 />
    <glyph glyph-name=".null" horiz-adv-x="0" 
 />
    </font>
</defs>
</svg>
